<?xml version="1.0" standalone="no"?>
<!DOCTYPE svg PUBLIC "-//W3C//DTD SVG 1.1//EN" "http://www.w3.org/Graphics/SVG/1.1/DTD/svg11.dtd" >
<svg xmlns="http://www.w3.org/2000/svg" xmlns:xlink="http://www.w3.org/1999/xlink" version="1.1">
<metadata>
Created by FontForge 20161116 at Thu Oct 16 12:24:31 2014
 By Jimmy Warting
Copyright (c) 2014 by Abjad / Ali Almasri. All rights reserved.
</metadata>
<defs>
<font id="Swissra-Normal" horiz-adv-x="0" >
  <font-face 
    font-family="Swissra-Normal"
    font-weight="400"
    font-stretch="normal"
    units-per-em="1000"
    panose-1="1 0 0 0 0 0 0 0 0 0"
    ascent="664"
    descent="-336"
    bbox="-161.001 -550.999 1570 1090"
    underline-thickness="24"
    underline-position="-37"
    unicode-range="U+000D-FEFC"
  />
<missing-glyph horiz-adv-x="499" 
d="M499 699v-699h-499v699h499zM450 48v601h-402v-601h402zM219 228c0 2 -0.334961 4.50293 -1.00195 7.50293s-1 5.83301 -1 8.5c0 6 0.166992 12.5 0.5 19.5s1 14 2 21s2.33301 13.833 4 20.5s3.5 12.667 5.5 18c6 12 14.333 23.5 25 34.5s21 22 31 33
s18.833 22.167 26.5 33.5c7.66699 11.334 11.5 23.667 11.5 36.999c0 10.667 -1.83301 21 -5.5 31s-8.66699 18.833 -15 26.5c-6.33301 7.6748 -14 13.8418 -23 18.5c-9 4.66699 -19.167 7 -30.5 7c-13.334 0 -24.667 -2.5 -34 -7.5c-9.33398 -5 -17.167 -12 -23.5 -21
s-11.333 -19 -15 -30s-6.16699 -22.167 -7.5 -33.5l-48 7c2 19.334 6 37.167 12 53.499c6 16.333 14.333 30.5 25 42.5s23.834 21.333 39.501 28s33.834 10 54.5 10c18.667 0 35.334 -3.33301 50.001 -10s27.167 -15.667 37.5 -27s18.5 -24.833 24.5 -40.5s9 -32.5 9 -50.5
c0 -16 -2.16699 -30 -6.5 -42s-9.83301 -22.833 -16.5 -32.5c-6.66699 -9.66797 -14.167 -18.335 -22.5 -26c-8.33301 -7.66699 -16.333 -15 -24 -22s-14.5 -14 -20.5 -21s-10.333 -14.833 -13 -23.5c-1.33301 -4 -2.5 -9.16699 -3.5 -15.5s-1.66699 -12.833 -2 -19.5
s-0.5 -13.334 -0.5 -20.001v-15h-45zM215.998 114.003v65h55v-65h-55z" />
    <glyph glyph-name="uniFEF5" unicode="&#xfedf;&#xfe82;" horiz-adv-x="630" arabic-form="isolated" 
d="M234 81h247v634h84v-715h-545v81h130v449h84v-449zM122 704c10.667 0 21.167 -1.5 31.5 -4.5s20.5 -6.16699 30.5 -9.5s20.167 -6.5 30.5 -9.5s20.5 -4.5 30.5 -4.5c28 0 42 10.333 42 31h32c0 -24 -6.66699 -42.833 -20 -56.5s-29.666 -20.5 -48.999 -20.5
c-10.667 0 -21.167 1.5 -31.5 4.5s-20.5 6.33301 -30.5 10s-20 7 -30 10s-20.333 4.5 -31 4.5c-28 0 -42 -10.667 -42 -32h-32c0 24 6.66699 42.833 20 56.5s29.666 20.5 48.999 20.5z" />
    <glyph glyph-name="uniFEF6" unicode="&#xfee0;&#xfe82;" horiz-adv-x="719" arabic-form="final" 
d="M679 0c-14 0 -28.502 2.33496 -43.502 7.00195s-29 11 -42 19s-24.5 17.167 -34.5 27.5s-17.333 21.5 -22 33.5c-15.333 -30 -36.166 -52 -62.499 -66s-54.166 -21 -83.499 -21h-371v81h130v449h84v-449h158c22.667 0 42.334 7.5 59.001 22.5s25 40.833 25 77.5v534h84
v-499c0 -20 3.16699 -38.333 9.5 -55s14.833 -30.834 25.5 -42.501c10.6709 -11.667 23.3379 -20.834 38 -27.501c14.667 -6.66699 30 -10 46 -10h40c5.33301 0 10.166 -0.666992 14.499 -2s6.5 -5.33301 6.5 -12v-56c0 -7.33301 -7 -11 -21 -11h-40zM129.998 710.002
c10.667 0 21.167 -1.5 31.5 -4.5s20.5 -6.16699 30.5 -9.5s20.167 -6.5 30.5 -9.5s20.5 -4.5 30.5 -4.5c28 0 42 10.333 42 31h32c0 -24 -6.66699 -42.833 -20 -56.5s-29.666 -20.5 -48.999 -20.5c-10.667 0 -21.167 1.5 -31.5 4.5s-20.5 6.33301 -30.5 10s-20 7 -30 10
s-20.333 4.5 -31 4.5c-28 0 -42 -10.667 -42 -32h-32c0 24 6.66699 42.833 20 56.5s29.666 20.5 48.999 20.5z" />
    <glyph glyph-name="uniFEF7" unicode="&#xfedf;&#xfe84;" horiz-adv-x="630" arabic-form="isolated" 
d="M234 81h247v634h84v-715h-545v81h130v449h84v-449zM110 701l38.002 0.000976562v3c-4.66699 5.33301 -9 12.5 -13 21.5s-6 18.167 -6 27.5c0 21.333 6.33301 38.833 19 52.5s31.667 20.5 57 20.5c19.333 0 36.166 -5.83301 50.499 -17.5s21.833 -29.5 22.5 -53.5h-35
c-0.666992 9.33301 -4.33398 18 -11.001 26s-15.667 12 -27 12c-10 0 -18.667 -3.83301 -26 -11.5s-11 -18.834 -11 -33.501c0 -15.333 4.16699 -27 12.5 -35s18.5 -12 30.5 -12h72v-36h-173v36z" />
    <glyph glyph-name="uniFEF8" unicode="&#xfee0;&#xfe84;" horiz-adv-x="719" arabic-form="final" 
d="M679 0c-14 0 -28.502 2.33496 -43.502 7.00195s-29 11 -42 19s-24.5 17.167 -34.5 27.5s-17.333 21.5 -22 33.5c-15.333 -30 -36.166 -52 -62.499 -66s-54.166 -21 -83.499 -21h-371v81h130v449h84v-449h158c22.667 0 42.334 7.5 59.001 22.5s25 40.833 25 77.5v534h84
v-499c0 -20 3.16699 -38.333 9.5 -55s14.833 -30.834 25.5 -42.501c10.6709 -11.667 23.3379 -20.834 38 -27.501c14.667 -6.66699 30 -10 46 -10h40c5.33301 0 10.166 -0.666992 14.499 -2s6.5 -5.33301 6.5 -12v-56c0 -7.33301 -7 -11 -21 -11h-40zM113.998 714.002
l38.002 0.000976562v3c-4.66699 5.33301 -9 12.5 -13 21.5s-6 18.167 -6 27.5c0 21.333 6.33301 38.833 19 52.5s31.667 20.5 57 20.5c19.333 0 36.166 -5.83301 50.499 -17.5s21.833 -29.5 22.5 -53.5h-35c-0.666992 9.33301 -4.33398 18 -11.001 26s-15.667 12 -27 12
c-10 0 -18.667 -3.83301 -26 -11.5s-11 -18.834 -11 -33.501c0 -15.333 4.16699 -27 12.5 -35s18.5 -12 30.5 -12h72v-36h-173v36z" />
    <glyph glyph-name="uniFEF9" unicode="&#xfedf;&#xfe88;" horiz-adv-x="630" arabic-form="isolated" 
d="M234 81h247v634h84v-715h-545v81h130v449h84v-449zM110 -236l38.002 0.000976562v3c-4.66699 5.33301 -9 12.5 -13 21.5s-6 18.167 -6 27.5c0 21.333 6.33301 38.833 19 52.5s31.667 20.5 57 20.5c19.333 0 36.166 -5.83301 50.499 -17.5s21.833 -29.5 22.5 -53.5h-35
c-0.666992 9.33301 -4.33398 18 -11.001 26s-15.667 12 -27 12c-10 0 -18.667 -3.83301 -26 -11.5s-11 -18.834 -11 -33.501c0 -15.333 4.16699 -27 12.5 -35s18.5 -12 30.5 -12h72v-36h-173v36z" />
    <glyph glyph-name="uniFEFA" unicode="&#xfee0;&#xfe88;" horiz-adv-x="719" arabic-form="final" 
d="M679 0c-14 0 -28.502 2.33496 -43.502 7.00195s-29 11 -42 19s-24.5 17.167 -34.5 27.5s-17.333 21.5 -22 33.5c-15.333 -30 -36.166 -52 -62.499 -66s-54.166 -21 -83.499 -21h-371v81h130v449h84v-449h158c22.667 0 42.334 7.5 59.001 22.5s25 40.833 25 77.5v534h84
v-499c0 -20 3.16699 -38.333 9.5 -55s14.833 -30.834 25.5 -42.501c10.6709 -11.667 23.3379 -20.834 38 -27.501c14.667 -6.66699 30 -10 46 -10h40c5.33301 0 10.166 -0.666992 14.499 -2s6.5 -5.33301 6.5 -12v-56c0 -7.33301 -7 -11 -21 -11h-40zM105.998 -221.998
l38.0029 0.000976562v3c-4.66699 5.33301 -9 12.5 -13 21.5s-6 18.167 -6 27.5c0 21.333 6.33301 38.833 18.999 52.5c12.667 13.667 31.667 20.5 57 20.5c19.333 0 36.166 -5.83301 50.499 -17.5s21.833 -29.5 22.5 -53.5h-35c-0.666992 9.33301 -4.33398 18 -11.001 26
s-15.667 12 -27 12c-10 0 -18.667 -3.83301 -26 -11.5s-11 -18.834 -11 -33.501c0 -15.333 4.16699 -27 12.5 -35s18.5 -12 30.5 -12h72v-36h-173v36z" />
    <glyph glyph-name="uniFEFB" unicode="&#xfedf;&#xfe8e;" horiz-adv-x="630" arabic-form="isolated" 
d="M234 81h247v634h84v-715h-545v81h130v449h84v-449z" />
    <glyph glyph-name="uniFEFC" unicode="&#xfee0;&#xfe8e;" horiz-adv-x="719" arabic-form="final" 
d="M679 0c-14 0 -28.502 2.33496 -43.502 7.00195s-29 11 -42 19s-24.5 17.167 -34.5 27.5s-17.333 21.5 -22 33.5c-15.333 -30 -36.166 -52 -62.499 -66s-54.166 -21 -83.499 -21h-371v81h130v449h84v-449h158c22.667 0 42.334 7.5 59.001 22.5s25 40.833 25 77.5v534h84
v-499c0 -20 3.16699 -38.333 9.5 -55s14.833 -30.834 25.5 -42.501c10.6709 -11.667 23.3379 -20.834 38 -27.501c14.667 -6.66699 30 -10 46 -10h40c5.33301 0 10.166 -0.666992 14.499 -2s6.5 -5.33301 6.5 -12v-56c0 -7.33301 -7 -11 -21 -11h-40z" />
    <glyph glyph-name="uni06440671" unicode="&#xfedf;&#xfb51;" horiz-adv-x="630" 
d="M238 721c26 0 43.5 -7.16699 52.5 -21.5c9 -14.3359 13.5 -32.1689 13.5 -53.5v-52h-205v36h28c4.66699 12 11.167 23.333 19.5 34c8.33301 10.6689 17.5 20.3359 27.5 29c10 8.66699 20.5 15.5 31.5 20.5s21.833 7.5 32.5 7.5zM265 630l-0.000976562 16
c0 11.333 -3.33301 20.333 -10 27s-14.667 10 -24 10c-15.333 0 -28.166 -6 -38.499 -18c-10.334 -12 -18.167 -23.667 -23.5 -35h96zM233.999 81h247v634h84v-715h-545v81h130v449h84v-449z" />
    <glyph glyph-name="uni06440671.fina" unicode="&#xfee0;&#xfb51;" horiz-adv-x="719" 
d="M236 748c26 0 43.5 -7.16699 52.5 -21.5c9 -14.334 13.5 -32.167 13.5 -53.5v-52h-205v36h28c4.66699 12 11.167 23.333 19.5 34c8.33301 10.6719 17.5 20.3389 27.5 29c10 8.66699 20.5 15.5 31.5 20.5s21.833 7.5 32.5 7.5zM263 657l-0.000976562 16
c0 11.333 -3.33301 20.333 -10 27s-14.667 10 -24 10c-15.333 0 -28.166 -6 -38.499 -18c-10.334 -12 -18.167 -23.667 -23.5 -35h96zM678.999 0c-14 0 -28.502 2.33496 -43.502 7.00195s-29 11 -42 19s-24.5 17.167 -34.5 27.5s-17.333 21.5 -22 33.5
c-15.333 -30 -36.166 -52 -62.499 -66s-54.166 -21 -83.499 -21h-371v81h130v449h84v-449h158c22.667 0 42.334 7.5 59.001 22.5s25 40.833 25 77.5v534h84v-499c0 -20 3.16699 -38.333 9.5 -55s14.833 -30.834 25.5 -42.501c10.6709 -11.667 23.3379 -20.834 38 -27.501
c14.667 -6.66699 30 -10 46 -10h40c5.33301 0 10.166 -0.666992 14.499 -2s6.5 -5.33301 6.5 -12v-56c0 -7.33301 -7 -11 -21 -11h-40z" />
    <glyph glyph-name="uni0621" unicode="&#x621;" horiz-adv-x="528" arabic-form="isolated" 
d="M30 0v81h115v7c-5.33301 4.66699 -11.5 12.167 -18.5 22.5s-13.5 22 -19.5 35s-11.167 27 -15.5 42s-6.5 29.5 -6.5 43.5c0 30 5.16699 57.333 15.5 82s24.5 45.5 42.5 62.5s39 30.167 63 39.5s50 14 78 14c56 0 100.167 -16.5 132.5 -49.5
c32.334 -33 50.167 -79.833 53.499 -140.5h-69c-0.666992 14.667 -4.16699 28.667 -10.5 42c-6.33301 13.335 -14.666 25.168 -24.999 35.5c-10.333 10.333 -22.5 18.5 -36.5 24.5s-29 9 -45 9c-32 0 -58.667 -10.167 -80 -30.5s-32 -49.833 -32 -88.5
c0 -19.333 2.83301 -38 8.5 -56s13.834 -34 24.5 -48c10.667 -14 23.334 -25.167 38 -33.5c14.667 -8.33301 30.667 -12.5 48 -12.5h192v-81h-453z" />
    <glyph glyph-name="uni0622" unicode="&#x622;" horiz-adv-x="215" arabic-form="isolated" 
d="M44 887c10.667 0 21.168 -1.5 31.501 -4.5s20.5 -6.16699 30.5 -9.5s20.167 -6.5 30.5 -9.5s20.5 -4.5 30.5 -4.5c28 0 42 10.333 42 31h32c0 -24 -6.66699 -42.833 -20 -56.5c-13.334 -13.667 -29.667 -20.5 -49 -20.5c-10.667 0 -21.167 1.5 -31.5 4.5
s-20.5 6.33301 -30.5 10s-20 7 -30 10s-20.333 4.5 -31 4.5c-28 0 -42 -10.667 -42 -32h-32c0 24 6.66699 42.833 20 56.5s29.666 20.5 48.999 20.5zM65.001 0v715h85v-715h-85z" />
    <glyph glyph-name="uni0623" unicode="&#x623;" horiz-adv-x="215" arabic-form="isolated" 
d="M24 820l38.002 0.000976562v3c-4.66699 5.33301 -9 12.5 -13 21.5s-6 18.167 -6 27.5c0 21.333 6.33301 38.833 19 52.5s31.667 20.5 57 20.5c19.333 0 36.166 -5.83301 50.499 -17.5s21.833 -29.5 22.5 -53.5h-35c-0.666992 9.33301 -4.33398 18 -11.001 26
s-15.667 12 -27 12c-10 0 -18.667 -3.83301 -26 -11.5s-11 -18.834 -11 -33.501c0 -15.333 4.16699 -27 12.5 -35s18.5 -12 30.5 -12h72v-36h-173v36zM65.002 0.000976562v715h85v-715h-85z" />
    <glyph glyph-name="uni0624" unicode="&#x624;" horiz-adv-x="531" arabic-form="isolated" 
d="M49 662l38.002 0.000976562v3c-4.66699 5.33301 -9 12.5 -13 21.5s-6 18.167 -6 27.5c0 21.333 6.33301 38.833 19 52.5s31.667 20.5 57 20.5c19.333 0 36.166 -5.83301 50.499 -17.5s21.833 -29.5 22.5 -53.5h-35c-0.666992 9.33301 -4.33398 18 -11.001 26
s-15.667 12 -27 12c-10 0 -18.667 -3.83301 -26 -11.5s-11 -18.834 -11 -33.501c0 -15.333 4.16699 -27 12.5 -35s18.5 -12 30.5 -12h72v-36h-173v36zM186.002 -157.999c27.333 0 51.666 2.33594 72.999 7.00293c21.334 4.66699 40.167 13 56.5 25s30 28.167 41 48.5
s19.833 46.166 26.5 77.499h-117c-35.333 0 -66.666 6 -93.999 18s-50.333 28.5 -69 49.5s-33 45.667 -43 74s-15 59.166 -15 92.499s3.83301 65.5 11.5 96.5s20.167 58.333 37.5 82s40 42.667 68 57s62.667 21.5 104 21.5s76 -6.66699 104 -20s50.667 -32.833 68 -58.5
c17.335 -25.667 29.668 -57 37 -94c7.33301 -37 11 -79.167 11 -126.5c0 -81.333 -5.33301 -149.333 -16 -204s-27.5 -98.834 -50.5 -132.501s-52.5 -57.667 -88.5 -72s-79.333 -21.5 -130 -21.5c-14 0 -26 0.666992 -36 2s-18.667 3 -26 5
c-8 2.66504 -14.667 5.33203 -20 8v81c9.33301 -4.66699 20 -8.5 32 -11.5s23.667 -4.5 35 -4.5zM398.002 197.004c0 72 -11 125 -33 159s-54.667 51 -98 51c-22.667 0 -42.167 -4.33301 -58.5 -13s-30 -20.667 -41 -36s-19.167 -33.5 -24.5 -54.5s-8 -44.167 -8 -69.5
c0 -102 43.667 -153 131 -153h128c1.33301 17.333 2.33301 35.5 3 54.5s1 39.5 1 61.5z" />
    <glyph glyph-name="uni0625" unicode="&#x625;" horiz-adv-x="215" arabic-form="isolated" 
d="M36 -222l38.002 0.000976562v3c-4.66699 5.33301 -9 12.5 -13 21.5s-6 18.167 -6 27.5c0 21.333 6.33301 38.833 19 52.5s31.667 20.5 57 20.5c19.333 0 36.166 -5.83301 50.499 -17.5s21.833 -29.5 22.5 -53.5h-35c-0.666992 9.33301 -4.33398 18 -11.001 26
s-15.667 12 -27 12c-10 0 -18.667 -3.83301 -26 -11.5s-11 -18.834 -11 -33.501c0 -15.333 4.16699 -27 12.5 -35s18.5 -12 30.5 -12h72v-36h-173v36zM65.002 0.000976562v715h85v-715h-85z" />
    <glyph glyph-name="uni0626" unicode="&#x626;" horiz-adv-x="779" arabic-form="isolated" 
d="M38 365h38.002v3c-4.66699 5.33301 -9 12.5 -13 21.5s-6 18.167 -6 27.5c0 21.333 6.33301 38.833 19 52.5s31.667 20.5 57 20.5c19.333 0 36.166 -5.83301 50.499 -17.5s21.833 -29.5 22.5 -53.5h-35c-0.666992 9.33301 -4.33398 18 -11.001 26s-15.667 12 -27 12
c-10 0 -18.667 -3.83301 -26 -11.5s-11 -18.834 -11 -33.5c0 -15.333 4.16699 -27 12.5 -35s18.5 -12 30.5 -12h72v-36h-173v36zM395.002 -157c34.667 0 67.501 2.33691 98.501 7.00391s58 12.167 81 22.5s41.167 23.5 54.5 39.5s20 35 20 57
c0 12.667 -2.33301 23.334 -7 32.001s-13 16.5 -25 23.5s-28.5 14.167 -49.5 21.5s-47.5 16.333 -79.5 27c-54 17.333 -95.333 43.166 -124 77.499s-43 74.5 -43 120.5c0 28 3.5 55.167 10.5 81.5c7 26.334 18.5 49.667 34.5 70s37.167 36.833 63.5 49.5s58.5 19 96.5 19
c58 0 103.833 -18 137.5 -54c33.6689 -36 52.8359 -87.333 57.5 -154h-75c-5.33301 44 -18.833 76.167 -40.5 96.5s-48.167 30.5 -79.5 30.5c-36 0 -65 -11.833 -87 -35.5s-33 -58.167 -33 -103.5c0 -17.333 3.83301 -32.5 11.5 -45.5s18.667 -24.5 33 -34.5
s32 -19.333 53 -28s44.5 -17.334 70.5 -26.001c56.667 -19.333 97.5 -42 122.5 -68s37.5 -59.333 37.5 -100c0 -28.667 -6.66699 -55.667 -20 -81s-33.833 -47.333 -61.5 -66s-62.834 -33.334 -105.501 -44.001s-93.667 -16 -153 -16c-66 0 -121.667 8.16699 -167 24.5
s-82.166 40 -110.499 71s-48.833 68.667 -61.5 113s-19.334 94.166 -20.001 149.499h80c0 -56 6.33301 -102 19 -138s31 -64.333 55 -85s53.333 -34.834 88 -42.501s74 -11.5 118 -11.5z" />
    <glyph glyph-name="uni0627" unicode="&#x627;" horiz-adv-x="215" arabic-form="isolated" 
d="M65 0v715h85v-715h-85z" />
    <glyph glyph-name="uni0628" unicode="&#x628;" horiz-adv-x="970" arabic-form="isolated" 
d="M467 -95h85v-117h-85v117zM820 81v345.001h85v-426h-646c-28.667 0 -55.667 4 -81 12s-47.5 21.167 -66.5 39.5s-34 42.166 -45 71.499s-16.5 65.333 -16.5 108v67h78v-68c0 -51.333 11.167 -89 33.5 -113s54.833 -36 97.5 -36h561z" />
    <glyph glyph-name="uni0629" unicode="&#x629;" horiz-adv-x="556" arabic-form="isolated" 
d="M340 715h85v-117h-85v117zM169 715h85v-117h-85v117zM278 -11c-37.333 0 -70.5 6.16699 -99.5 18.5s-53.333 29.5 -73 51.5s-34.667 48.333 -45 79s-15.5 64.667 -15.5 102c0 36.667 5.16699 70.5 15.5 101.5s25.333 57.5 45 79.5s44 39.167 73 51.5
s62.167 18.5 99.5 18.5s70.5 -6.16699 99.5 -18.5s53.333 -29.5 73 -51.5s34.667 -48.5 45 -79.5s15.5 -64.833 15.5 -101.5c0 -37.333 -5.16699 -71.333 -15.5 -102s-25.333 -57 -45 -79s-44 -39.167 -73 -51.5s-62.167 -18.5 -99.5 -18.5zM278 72
c24.667 0 46.167 4.16602 64.5 12.499s33.5 19.833 45.5 34.5s21 32.334 27 53.001s9 43.334 9 68c0 24.667 -3 47.334 -9 68.001s-15 38.334 -27 53.001s-27.167 26.167 -45.5 34.5s-39.833 12.5 -64.5 12.5s-46.167 -4.16699 -64.5 -12.5s-33.5 -19.833 -45.5 -34.5
s-21 -32.334 -27 -53c-6 -20.667 -9 -43.334 -9 -68c0 -24.667 3 -47.334 9 -68.001s15 -38.334 27 -53.001s27.167 -26.167 45.5 -34.5s39.833 -12.5 64.5 -12.5z" />
    <glyph glyph-name="uni062A" unicode="&#x62a;" horiz-adv-x="970" arabic-form="isolated" 
d="M518 628h85v-117h-85v117zM347 628h85v-117h-85v117zM820 81v345.001h85v-426h-646c-28.667 0 -55.667 4 -81 12s-47.5 21.167 -66.5 39.5s-34 42.166 -45 71.499s-16.5 65.333 -16.5 108v67h78v-68c0 -51.333 11.167 -89 33.5 -113s54.833 -36 97.5 -36h561z" />
    <glyph glyph-name="uni062B" unicode="&#x62b;" horiz-adv-x="970" arabic-form="isolated" 
d="M440 781h85v-117h-85v117zM525 627h85v-117h-85v117zM354 627h85v-117h-85v117zM820 81v345.001h85v-426h-646c-28.667 0 -55.667 4 -81 12s-47.5 21.167 -66.5 39.5s-34 42.166 -45 71.499s-16.5 65.333 -16.5 108v67h78v-68c0 -51.333 11.167 -89 33.5 -113
s54.833 -36 97.5 -36h561z" />
    <glyph glyph-name="uni062C" unicode="&#x62c;" horiz-adv-x="667" arabic-form="isolated" 
d="M310 -66h77v-105h-77v105zM250 81l264.002 -0.00195312c-1.34863 4 -3.34863 11.333 -6 22c-2.66699 10.667 -5.5 22.667 -8.5 36s-5.83301 27.5 -8.5 42.5s-5 28.5 -7 40.5c-10 63.333 -29.167 110.5 -57.5 141.5s-60.833 46.5 -97.5 46.5
c-46.667 0 -84.667 -12.833 -114 -38.5s-48 -59.5 -56 -101.5h-82c2.66699 30 10.667 58.333 24 85s31 50.167 53 70.5s47.833 36.333 77.5 48s62.167 17.5 97.5 17.5s66.833 -7 94.5 -21s51.5 -33.5 71.5 -58.5s36.167 -54.333 48.5 -88s21.166 -70.5 26.499 -110.5
c4.66699 -36.667 9 -66.167 13 -88.5s7.66699 -40.666 11 -54.999s6.33301 -26.5 9 -36.5s5.66699 -21 9 -33h-351c-45.333 0 -81.333 -10.667 -108 -32s-40 -47.333 -40 -78c0 -23.333 3.16699 -44.666 9.5 -63.999s17.166 -40.666 32.499 -64h-78
c-13.333 16.667 -24.5 35.667 -33.5 57s-13.5 46 -13.5 74c0 25.333 4.33301 49.333 13 72s22 42.667 40 60s40.833 31 68.5 41s60.5 15 98.5 15z" />
    <glyph glyph-name="uni062D" unicode="&#x62d;" horiz-adv-x="667" arabic-form="isolated" 
d="M250 81l264.002 -0.00195312c-1.34863 4 -3.34863 11.333 -6 22c-2.66699 10.667 -5.5 22.667 -8.5 36s-5.83301 27.5 -8.5 42.5s-5 28.5 -7 40.5c-10 63.333 -29.167 110.5 -57.5 141.5s-60.833 46.5 -97.5 46.5c-46.667 0 -84.667 -12.833 -114 -38.5
s-48 -59.5 -56 -101.5h-82c2.66699 30 10.667 58.333 24 85s31 50.167 53 70.5s47.833 36.333 77.5 48s62.167 17.5 97.5 17.5s66.833 -7 94.5 -21s51.5 -33.5 71.5 -58.5s36.167 -54.333 48.5 -88s21.166 -70.5 26.499 -110.5c4.66699 -36.667 9 -66.167 13 -88.5
s7.66699 -40.666 11 -54.999s6.33301 -26.5 9 -36.5s5.66699 -21 9 -33h-351c-45.333 0 -81.333 -10.667 -108 -32s-40 -47.333 -40 -78c0 -23.333 3.16699 -44.666 9.5 -63.999s17.166 -40.666 32.499 -64h-78c-13.333 16.667 -24.5 35.667 -33.5 57s-13.5 46 -13.5 74
c0 25.333 4.33301 49.333 13 72s22 42.667 40 60s40.833 31 68.5 41s60.5 15 98.5 15z" />
    <glyph glyph-name="uni062E" unicode="&#x62e;" horiz-adv-x="667" arabic-form="isolated" 
d="M278 715h85v-117h-85v117zM250 81l264.002 -0.00195312c-1.34863 4 -3.34863 11.333 -6 22c-2.66699 10.667 -5.5 22.667 -8.5 36s-5.83301 27.5 -8.5 42.5s-5 28.5 -7 40.5c-10 63.333 -29.167 110.5 -57.5 141.5s-60.833 46.5 -97.5 46.5
c-46.667 0 -84.667 -12.833 -114 -38.5s-48 -59.5 -56 -101.5h-82c2.66699 30 10.667 58.333 24 85s31 50.167 53 70.5s47.833 36.333 77.5 48s62.167 17.5 97.5 17.5s66.833 -7 94.5 -21s51.5 -33.5 71.5 -58.5s36.167 -54.333 48.5 -88s21.166 -70.5 26.499 -110.5
c4.66699 -36.667 9 -66.167 13 -88.5s7.66699 -40.666 11 -54.999s6.33301 -26.5 9 -36.5s5.66699 -21 9 -33h-351c-45.333 0 -81.333 -10.667 -108 -32s-40 -47.333 -40 -78c0 -23.333 3.16699 -44.666 9.5 -63.999s17.166 -40.666 32.499 -64h-78
c-13.333 16.667 -24.5 35.667 -33.5 57s-13.5 46 -13.5 74c0 25.333 4.33301 49.333 13 72s22 42.667 40 60s40.833 31 68.5 41s60.5 15 98.5 15z" />
    <glyph glyph-name="uni062F" unicode="&#x62f;" horiz-adv-x="479" arabic-form="isolated" 
d="M50 0l-0.00390625 81h290v127c0 24 -2.83301 47.333 -8.5 70c-5.66797 22.667 -14.835 42.5 -27.5 59.5c-12.667 17 -28.667 30.667 -48 41s-42.666 15.5 -69.999 15.5h-92v80h77c36.667 0 70.334 -5 101.001 -15s57.334 -25.833 80.001 -47.5s40.334 -49.5 53.001 -83.5
s19 -75 19 -123v-205h-374z" />
    <glyph glyph-name="uni0630" unicode="&#x630;" horiz-adv-x="479" arabic-form="isolated" 
d="M126 716h85v-117h-85v117zM50 0l-0.00390625 81h290v127c0 24 -2.83301 47.333 -8.5 70c-5.66797 22.667 -14.835 42.5 -27.5 59.5c-12.667 17 -28.667 30.667 -48 41s-42.666 15.5 -69.999 15.5h-92v80h77c36.667 0 70.334 -5 101.001 -15s57.334 -25.833 80.001 -47.5
s40.334 -49.5 53.001 -83.5s19 -75 19 -123v-205h-374z" />
    <glyph glyph-name="uni0631" unicode="&#x631;" horiz-adv-x="320" arabic-form="isolated" 
d="M85 -156c14 0 26.167 2.50098 36.5 7.50098s19.166 13.333 26.499 25s12.833 27.167 16.5 46.5s5.5 43.666 5.5 72.999v430h85v-430c0 -76 -12 -134 -36 -174s-64.667 -60 -122 -60c-14 0 -25.833 0.833008 -35.5 2.5c-9.66699 1.66504 -17.5 3.83203 -23.5 6.5
c-7.33301 2.66699 -13.333 5.66699 -18 9v81c20.667 -11.333 42.334 -17 65.001 -17z" />
    <glyph glyph-name="uni0632" unicode="&#x632;" horiz-adv-x="333" arabic-form="isolated" 
d="M170 715h85v-117h-85v117zM85 -156c14 0 26.167 2.50098 36.5 7.50098s19.166 13.333 26.499 25s12.833 27.167 16.5 46.5s5.5 43.666 5.5 72.999v430h85v-430c0 -76 -12 -134 -36 -174s-64.667 -60 -122 -60c-14 0 -25.833 0.833008 -35.5 2.5
c-9.66699 1.66504 -17.5 3.83203 -23.5 6.5c-7.33301 2.66699 -13.333 5.66699 -18 9v81c20.667 -11.333 42.334 -17 65.001 -17z" />
    <glyph glyph-name="uni0633" unicode="&#x633;" horiz-adv-x="1420" arabic-form="isolated" 
d="M380 -238c-110.667 0 -195.834 36.3359 -255.501 109.003s-89.5 180 -89.5 322v66h83v-66c0 -117.333 20.667 -204.833 62 -262.5s107.333 -86.5 198 -86.5c44.667 0 85 6 121 18s66.333 31.833 91 59.5s43.667 63.667 57 108s20 98.833 20 163.5v191h84v-206
c0 -35.333 8.83301 -60.833 26.5 -76.5c17.6699 -15.667 43.8369 -23.5 78.5 -23.5c34.667 0 60.5 7.83301 77.5 23.5s25.5 41.167 25.5 76.5v227h85v-224c0 -36 8.16699 -61.667 24.5 -77c16.3418 -15.333 36.1748 -23 59.5 -23h141v345h86v-426h-226
c-8.66699 0 -18.5 1.66699 -29.5 5s-21.833 8.16602 -32.5 14.499s-20.167 14.5 -28.5 24.5s-13.833 21.667 -16.5 35h-2c-15.333 -28 -36.5 -48.667 -63.5 -62s-56.833 -20 -89.5 -20c-12 0 -24.5 1.16699 -37.5 3.5s-25.167 6.16602 -36.5 11.499
s-21.5 12.166 -30.5 20.499s-15.833 18.5 -20.5 30.5c-7.33594 -42 -19.1689 -81.333 -35.499 -118c-16.333 -36.667 -39 -68.5 -68 -95.5s-64.667 -48.333 -107 -64s-92.833 -23.5 -151.5 -23.5z" />
    <glyph glyph-name="uni0634" unicode="&#x634;" horiz-adv-x="1420" arabic-form="isolated" 
d="M966 870h85v-117h-85v117zM1051 716h85v-117h-85v117zM880 716h85v-117h-85v117zM380 -238c-110.667 0 -195.834 36.3359 -255.501 109.003s-89.5 180 -89.5 322v66h83v-66c0 -117.333 20.667 -204.833 62 -262.5s107.333 -86.5 198 -86.5c44.667 0 85 6 121 18
s66.333 31.833 91 59.5s43.667 63.667 57 108s20 98.833 20 163.5v191h84v-206c0 -35.333 8.83301 -60.833 26.5 -76.5c17.6699 -15.667 43.8369 -23.5 78.5 -23.5c34.667 0 60.5 7.83301 77.5 23.5s25.5 41.167 25.5 76.5v227h85v-224c0 -36 8.16699 -61.667 24.5 -77
c16.3418 -15.333 36.1748 -23 59.5 -23h141v345h86v-426h-226c-8.66699 0 -18.5 1.66699 -29.5 5s-21.833 8.16602 -32.5 14.499s-20.167 14.5 -28.5 24.5s-13.833 21.667 -16.5 35h-2c-15.333 -28 -36.5 -48.667 -63.5 -62s-56.833 -20 -89.5 -20
c-12 0 -24.5 1.16699 -37.5 3.5s-25.167 6.16602 -36.5 11.499s-21.5 12.166 -30.5 20.499s-15.833 18.5 -20.5 30.5c-7.33594 -42 -19.1689 -81.333 -35.499 -118c-16.333 -36.667 -39 -68.5 -68 -95.5s-64.667 -48.333 -107 -64s-92.833 -23.5 -151.5 -23.5z" />
    <glyph glyph-name="uni0635" unicode="&#x635;" horiz-adv-x="1449" arabic-form="isolated" 
d="M380 -238c-110.667 0 -195.832 36.335 -255.499 109.002s-89.5 180 -89.5 322v65h84v-65c0 -116.667 20.667 -204 62 -262s107 -87 197 -87c44.667 0 85 7 121 21s66.333 35.333 91 64s43.667 65 57 109s20 95.667 20 155v205h84v-203h5
c20.667 30.667 44.667 62.167 72 94.5s57.5 61.833 90.5 88.5s68.667 48.5 107 65.5s78.833 25.5 121.5 25.5c76.667 0 137 -20.833 181 -62.5s66 -102.834 66 -183.501v-223h-669c-10.667 -33.333 -25.334 -64.333 -44.001 -93s-42 -53.834 -70 -75.501
s-61 -38.667 -99 -51s-82 -18.5 -132 -18.5zM1143 388.002c-26 0 -52.166 -5.99902 -78.499 -17.999s-52 -27.667 -77 -47s-49 -40.666 -72 -63.999s-43.833 -46.333 -62.5 -69s-35 -43.834 -49 -63.501s-24.667 -34.834 -32 -45.501h539v145
c0 26.667 -4.5 50.167 -13.5 70.5c-9 20.334 -21 37.167 -36 50.5s-32.833 23.5 -53.5 30.5c-20.6758 7 -42.3428 10.5 -65.001 10.5z" />
    <glyph glyph-name="uni0636" unicode="&#x636;" horiz-adv-x="1449" arabic-form="isolated" 
d="M825 715h85v-117h-85v117zM380 -238c-110.667 0 -195.832 36.335 -255.499 109.002s-89.5 180 -89.5 322v65h84v-65c0 -116.667 20.667 -204 62 -262s107 -87 197 -87c44.667 0 85 7 121 21s66.333 35.333 91 64s43.667 65 57 109s20 95.667 20 155v205h84v-203h5
c20.667 30.667 44.667 62.167 72 94.5s57.5 61.833 90.5 88.5s68.667 48.5 107 65.5s78.833 25.5 121.5 25.5c76.667 0 137 -20.833 181 -62.5s66 -102.834 66 -183.501v-223h-669c-10.667 -33.333 -25.334 -64.333 -44.001 -93s-42 -53.834 -70 -75.501
s-61 -38.667 -99 -51s-82 -18.5 -132 -18.5zM1143 388.002c-26 0 -52.166 -5.99902 -78.499 -17.999s-52 -27.667 -77 -47s-49 -40.666 -72 -63.999s-43.833 -46.333 -62.5 -69s-35 -43.834 -49 -63.501s-24.667 -34.834 -32 -45.501h539v145
c0 26.667 -4.5 50.167 -13.5 70.5c-9 20.334 -21 37.167 -36 50.5s-32.833 23.5 -53.5 30.5c-20.6758 7 -42.3428 10.5 -65.001 10.5z" />
    <glyph glyph-name="uni0637" unicode="&#x637;" horiz-adv-x="888" arabic-form="isolated" 
d="M30 81l95 0.000976562v634h85v-494h4c21.333 29.333 45.333 58.666 72 87.999s55.667 55.833 87 79.5s64.833 43 100.5 58s73.167 22.5 112.5 22.5c76.667 0 137 -20.833 181 -62.5s66 -102.834 66 -183.5v-223h-803v81zM582 388.001
c-26 0 -52.166 -5.99902 -78.499 -17.999s-52 -27.667 -77 -47s-49 -40.666 -72 -63.999s-43.833 -46.333 -62.5 -69s-35 -43.834 -49 -63.501s-24.667 -34.834 -32 -45.501h539v145c0 26.667 -4.5 50.167 -13.5 70.5c-9 20.334 -21 37.167 -36 50.5
s-32.833 23.5 -53.5 30.5s-42.334 10.5 -65.001 10.5z" />
    <glyph glyph-name="uni0638" unicode="&#x638;" horiz-adv-x="888" arabic-form="isolated" 
d="M400 687h85v-117h-85v117zM30 81l95 0.000976562v634h85v-494h4c21.333 29.333 45.333 58.666 72 87.999s55.667 55.833 87 79.5s64.833 43 100.5 58s73.167 22.5 112.5 22.5c76.667 0 137 -20.833 181 -62.5s66 -102.834 66 -183.5v-223h-803v81zM582 388.001
c-26 0 -52.166 -5.99902 -78.499 -17.999s-52 -27.667 -77 -47s-49 -40.666 -72 -63.999s-43.833 -46.333 -62.5 -69s-35 -43.834 -49 -63.501s-24.667 -34.834 -32 -45.501h539v145c0 26.667 -4.5 50.167 -13.5 70.5c-9 20.334 -21 37.167 -36 50.5
s-32.833 23.5 -53.5 30.5s-42.334 10.5 -65.001 10.5z" />
    <glyph glyph-name="uni0639" unicode="&#x639;" horiz-adv-x="577" arabic-form="isolated" 
d="M118 -117c0 -19.333 3.83398 -39.5 11.501 -60.5s18.167 -41.167 31.5 -60.5h-84c-11.333 14 -22 32.333 -32 55s-15 44.667 -15 66c0 22.667 3.5 44.5 10.5 65.5s16.667 40.167 29 57.5s27.166 32.666 44.499 45.999s36.333 23.333 57 30v4
c-10 8 -19.167 18.833 -27.5 32.5s-15.5 28.5 -21.5 44.5s-10.667 32.5 -14 49.5s-5 32.5 -5 46.5c0 36 5 68.333 15 97s24.167 53 42.5 73s40.5 35.333 66.5 46s55.333 16 88 16s60.667 -6 84 -18s43 -27.5 59 -46.5s28.5 -40.5 37.5 -64.5s15.5 -48 19.5 -72h-82
c-4 36 -16.5 64.5 -37.5 85.5s-47.833 31.5 -80.5 31.5c-16 0 -31.5 -2.83301 -46.5 -8.5s-28 -14.5 -39 -26.5s-19.833 -27.333 -26.5 -46s-10 -41 -10 -67c0 -52.667 11.5 -95.5 34.5 -128.5s54.833 -49.5 95.5 -49.5h209v-81h-290c-16.667 0 -32.5 -2.16699 -47.5 -6.5
s-28.167 -11.166 -39.5 -20.499s-20.333 -21.5 -27 -36.5s-10 -32.833 -10 -53.5z" />
    <glyph glyph-name="uni063A" unicode="&#x63a;" horiz-adv-x="577" arabic-form="isolated" 
d="M279 727h85v-117h-85v117zM118 -117c0 -19.333 3.83398 -39.5 11.501 -60.5s18.167 -41.167 31.5 -60.5h-84c-11.333 14 -22 32.333 -32 55s-15 44.667 -15 66c0 22.667 3.5 44.5 10.5 65.5s16.667 40.167 29 57.5s27.166 32.666 44.499 45.999s36.333 23.333 57 30v4
c-10 8 -19.167 18.833 -27.5 32.5s-15.5 28.5 -21.5 44.5s-10.667 32.5 -14 49.5s-5 32.5 -5 46.5c0 36 5 68.333 15 97s24.167 53 42.5 73s40.5 35.333 66.5 46s55.333 16 88 16s60.667 -6 84 -18s43 -27.5 59 -46.5s28.5 -40.5 37.5 -64.5s15.5 -48 19.5 -72h-82
c-4 36 -16.5 64.5 -37.5 85.5s-47.833 31.5 -80.5 31.5c-16 0 -31.5 -2.83301 -46.5 -8.5s-28 -14.5 -39 -26.5s-19.833 -27.333 -26.5 -46s-10 -41 -10 -67c0 -52.667 11.5 -95.5 34.5 -128.5s54.833 -49.5 95.5 -49.5h209v-81h-290c-16.667 0 -32.5 -2.16699 -47.5 -6.5
s-28.167 -11.166 -39.5 -20.499s-20.333 -21.5 -27 -36.5s-10 -32.833 -10 -53.5z" />
    <glyph glyph-name="uni0641" unicode="&#x641;" horiz-adv-x="1100" arabic-form="isolated" 
d="M783 715h85v-117h-85v117zM821 408c-43.333 0 -78.5 -14.833 -105.5 -44.5s-40.5 -69.167 -40.5 -118.5c0 -24.667 3.66699 -47.167 11 -67.5s17.5 -37.833 30.5 -52.5s28.333 -26 46 -34s37.167 -12 58.5 -12c42.667 0 77.667 14 105 42s41 69.333 41 124
s-13.5 95.5 -40.5 122.5s-62.167 40.5 -105.5 40.5zM259 0c-28.667 0 -55.665 4 -80.998 12s-47.5 21.167 -66.5 39.5s-34 42.166 -45 71.499s-16.5 65.333 -16.5 108v67h78v-68c0 -51.333 11.167 -89 33.5 -113s54.833 -36 97.5 -36h393v4
c-5.33301 4.66699 -11.833 12.834 -19.5 24.501s-14.834 25 -21.501 40s-12.334 30.833 -17.001 47.5s-7 32.667 -7 48c0 80 20.833 141 62.5 183c41.668 42 98.835 63 171.5 63c72.668 0 129.835 -21.333 171.501 -64c41.667 -42.667 62.5 -103.334 62.5 -182
c0 -78.667 -20.333 -139.167 -61 -181.5s-98.334 -63.5 -173.001 -63.5h-562z" />
    <glyph glyph-name="uni0642" unicode="&#x642;" horiz-adv-x="802" arabic-form="isolated" 
d="M591 715h85v-117h-85v117zM420 715h85v-117h-85v117zM542 0c-35.333 0 -66.835 5.49609 -94.502 16.4961s-51 26.833 -70 47.5s-33.667 45.334 -44 74.001s-15.5 60.667 -15.5 96c0 33.333 3.16699 65.5 9.5 96.5s17.833 58.333 34.5 82s38.834 42.667 66.501 57
s63.167 21.5 106.5 21.5c42.668 0 78.335 -7 107 -21c28.667 -14 51.667 -34 69 -60s29.5 -57.667 36.5 -95s10.5 -79.666 10.5 -126.999c0 -78 -6.83301 -146.167 -20.5 -204.5s-35.167 -106.833 -64.5 -145.5s-67.333 -67.667 -114 -87s-103 -29 -169 -29
s-121.5 9.33301 -166.5 28c-45 18.666 -81.167 44.833 -108.5 78.5s-47.166 74.334 -59.499 122.001s-18.833 100.5 -19.5 158.5h79c0 -55.333 5.5 -102.333 16.5 -141s27.667 -70 50 -94s51 -41.5 86 -52.5s76.5 -16.5 124.5 -16.5c75.333 0 136 16.833 182 50.5
s75.667 81.834 89 144.501h-121zM670.998 80.9961l-0.000976562 116c0 68.667 -10 120.834 -30 156.501s-55 53.5 -105 53.5c-25.333 0 -46.166 -4.66699 -62.499 -14s-29.333 -21.833 -39 -37.5s-16.5 -34 -20.5 -55s-6 -43.167 -6 -66.5
c0 -50.667 10.833 -88.834 32.5 -114.501s55.5 -38.5 101.5 -38.5h129z" />
    <glyph glyph-name="uni0643" unicode="&#x643;" horiz-adv-x="731" arabic-form="isolated" 
d="M252 293v35.998h45v4c-4 5.33301 -8.33301 12.5 -13 21.5s-7 18.167 -7 27.5c0 20.667 6.33301 38 19 52s32 21 58 21s45 -6 57 -18s18.667 -29.667 20 -53h-39c0 10 -3.5 18.5 -10.5 25.5s-16.167 10.5 -27.5 10.5c-12 0 -20.833 -4 -26.5 -12s-8.5 -18.667 -8.5 -32
s3.66699 -24.166 11 -32.499s16 -13.166 26 -14.499h83v-36h-187zM259 -0.00195312c-28.667 0 -55.667 4.00098 -81 12.001s-47.5 21.167 -66.5 39.5s-34 42.166 -45 71.499s-16.5 65.333 -16.5 108v67h78v-68c0 -51.333 11.167 -89 33.5 -113s54.833 -36 97.5 -36h324v634
h83v-715h-407z" />
    <glyph glyph-name="uni0644" unicode="&#x644;" horiz-adv-x="715" arabic-form="isolated" 
d="M650 715v-512.998c0 -67.333 -5 -128.166 -15 -182.499s-27 -100.5 -51 -138.5s-56.333 -67.333 -97 -88s-91.667 -31 -153 -31s-111.5 10.333 -150.5 31s-69.5 49.667 -91.5 87s-37 82 -45 134s-12 109.667 -12 173h78c0 -64.667 3.83301 -118.834 11.5 -162.501
s20.334 -78.834 38 -105.501c17.667 -26.667 40.667 -45.667 69 -57s63.5 -17 105.5 -17c36 0 68.167 6 96.5 18s52.333 31.5 72 58.5s34.667 62.167 45 105.5s15.5 96.666 15.5 159.999v528h84z" />
    <glyph glyph-name="uni0645" unicode="&#x645;" horiz-adv-x="646" arabic-form="isolated" 
d="M133 245c0 80 20.833 141 62.5 183s98.834 63 171.501 63s129.834 -21.333 171.501 -64s62.5 -103.334 62.5 -182c0 -78.667 -20.333 -139.167 -61 -181.5s-98.334 -63.5 -173 -63.5h-132c-21.334 -0 -39.667 -2.66699 -55 -8s-27.833 -12.666 -37.5 -21.999
s-16.834 -20 -21.501 -32s-7 -24.333 -7 -37v-139h-84v138c0 54 14 95.833 42 125.5s72.333 47.5 133 53.5c-5.33301 4.66699 -12 13.167 -20 25.5s-15.833 26.333 -23.5 42s-14.334 32.167 -20.001 49.5s-8.5 33.666 -8.5 48.999zM367 408
c-43.333 0 -78.5 -14.833 -105.5 -44.5s-40.5 -69.167 -40.5 -118.5c0 -24.667 3.66699 -47.167 11 -67.5s17.5 -37.833 30.5 -52.5s28.333 -26 46 -34s37.167 -12 58.5 -12c42.667 0 77.667 14 105 42s41 69.333 41 124s-13.5 95.5 -40.5 122.5s-62.167 40.5 -105.5 40.5z
" />
    <glyph glyph-name="uni0646" unicode="&#x646;" horiz-adv-x="816" arabic-form="isolated" 
d="M383 488h85v-117h-85v117zM380 -238c-110.667 0 -195.833 36.334 -255.5 109.001s-89.5 180 -89.5 322v87h84v-87c0 -116.667 20.667 -204 62 -262s107 -87 197 -87c44.667 0 85 7 121 21s66.333 35.333 91 64s43.667 65 57 109s20 95.667 20 155v108h84v-123
c0 -50 -6 -99.833 -18 -149.5s-32.167 -94.334 -60.5 -134.001s-66.333 -71.667 -114 -96s-107.167 -36.5 -178.5 -36.5z" />
    <glyph glyph-name="uni0648" unicode="&#x648;" horiz-adv-x="531" arabic-form="isolated" 
d="M186 -158c27.333 0 51.666 2.33594 72.999 7.00293c21.334 4.66699 40.167 13 56.5 25s30 28.167 41 48.5s19.833 46.166 26.5 77.499h-117c-35.333 0 -66.666 6 -93.999 18s-50.333 28.5 -69 49.5s-33 45.667 -43 74s-15 59.166 -15 92.499s3.83301 65.5 11.5 96.5
s20.167 58.333 37.5 82s40 42.667 68 57s62.667 21.5 104 21.5s76 -6.66699 104 -20s50.667 -32.833 68 -58.5c17.335 -25.667 29.668 -57 37 -94c7.33301 -37 11 -79.167 11 -126.5c0 -81.333 -5.33301 -149.333 -16 -204s-27.5 -98.834 -50.5 -132.501
s-52.5 -57.667 -88.5 -72s-79.333 -21.5 -130 -21.5c-14 0 -26 0.666992 -36 2s-18.667 3 -26 5c-8 2.66504 -14.667 5.33203 -20 8v81c9.33301 -4.66699 20 -8.5 32 -11.5s23.667 -4.5 35 -4.5zM398 197.003c0 72 -11 125 -33 159s-54.667 51 -98 51
c-22.667 0 -42.167 -4.33301 -58.5 -13s-30 -20.667 -41 -36s-19.167 -33.5 -24.5 -54.5s-8 -44.167 -8 -69.5c0 -102 43.667 -153 131 -153h128c1.33301 17.333 2.33301 35.5 3 54.5s1 39.5 1 61.5z" />
    <glyph glyph-name="uni0649" unicode="&#x649;" horiz-adv-x="779" arabic-form="isolated" 
d="M395 -157c34.667 0 67.501 2.33691 98.501 7.00391s58 12.167 81 22.5s41.167 23.5 54.5 39.5s20 35 20 57c0 12.667 -2.33301 23.334 -7 32.001s-13 16.5 -25 23.5s-28.5 14.167 -49.5 21.5s-47.5 16.333 -79.5 27c-54 17.333 -95.333 43.166 -124 77.499
s-43 74.5 -43 120.5c0 28 3.5 55.167 10.5 81.5c7 26.334 18.5 49.667 34.5 70s37.167 36.833 63.5 49.5s58.5 19 96.5 19c58 0 103.833 -18 137.5 -54c33.6689 -36 52.8359 -87.333 57.5 -154h-75c-5.33301 44 -18.833 76.167 -40.5 96.5s-48.167 30.5 -79.5 30.5
c-36 0 -65 -11.833 -87 -35.5s-33 -58.167 -33 -103.5c0 -17.333 3.83301 -32.5 11.5 -45.5s18.667 -24.5 33 -34.5s32 -19.333 53 -28s44.5 -17.334 70.5 -26.001c56.667 -19.333 97.5 -42 122.5 -68s37.5 -59.333 37.5 -100c0 -28.667 -6.66699 -55.667 -20 -81
s-33.833 -47.333 -61.5 -66s-62.834 -33.334 -105.501 -44.001s-93.667 -16 -153 -16c-66 0 -121.667 8.16699 -167 24.5s-82.166 40 -110.499 71s-48.833 68.667 -61.5 113s-19.334 94.166 -20.001 149.499h80c0 -56 6.33301 -102 19 -138s31 -64.333 55 -85
s53.333 -34.834 88 -42.501s74 -11.5 118 -11.5z" />
    <glyph glyph-name="uni064A" unicode="&#x64a;" horiz-adv-x="779" arabic-form="isolated" 
d="M472 -352h85v-117h-85v117zM301 -352h85v-117h-85v117zM395 -157c34.667 0 67.501 2.33691 98.501 7.00391s58 12.167 81 22.5s41.167 23.5 54.5 39.5s20 35 20 57c0 12.667 -2.33301 23.334 -7 32.001s-13 16.5 -25 23.5s-28.5 14.167 -49.5 21.5s-47.5 16.333 -79.5 27
c-54 17.333 -95.333 43.166 -124 77.499s-43 74.5 -43 120.5c0 28 3.5 55.167 10.5 81.5c7 26.334 18.5 49.667 34.5 70s37.167 36.833 63.5 49.5s58.5 19 96.5 19c58 0 103.833 -18 137.5 -54c33.6689 -36 52.8359 -87.333 57.5 -154h-75
c-5.33301 44 -18.833 76.167 -40.5 96.5s-48.167 30.5 -79.5 30.5c-36 0 -65 -11.833 -87 -35.5s-33 -58.167 -33 -103.5c0 -17.333 3.83301 -32.5 11.5 -45.5s18.667 -24.5 33 -34.5s32 -19.333 53 -28s44.5 -17.334 70.5 -26.001c56.667 -19.333 97.5 -42 122.5 -68
s37.5 -59.333 37.5 -100c0 -28.667 -6.66699 -55.667 -20 -81s-33.833 -47.333 -61.5 -66s-62.834 -33.334 -105.501 -44.001s-93.667 -16 -153 -16c-66 0 -121.667 8.16699 -167 24.5s-82.166 40 -110.499 71s-48.833 68.667 -61.5 113s-19.334 94.166 -20.001 149.499h80
c0 -56 6.33301 -102 19 -138s31 -64.333 55 -85s53.333 -34.834 88 -42.501s74 -11.5 118 -11.5z" />
    <glyph glyph-name="uni0671" unicode="&#x671;" horiz-adv-x="215" arabic-form="isolated" 
d="M162 947c26 0 43.5 -7.16797 52.5 -21.501c9 -14.3369 13.5 -32.1699 13.5 -53.5v-52h-205v36h28c4.66699 12 11.167 23.333 19.5 34c8.33301 10.6738 17.5 20.3408 27.5 29.001c10 8.66699 20.5 15.5 31.5 20.5s21.833 7.5 32.5 7.5zM189 855.999l-0.00195312 16
c0 11.333 -3.33301 20.333 -10 27s-14.667 10 -24 10c-15.333 0 -28.166 -6 -38.499 -18s-18.166 -23.667 -23.499 -35h96zM64.998 -0.000976562v715h85v-715h-85z" />
    <glyph glyph-name="uni0679" unicode="&#x679;" horiz-adv-x="970" arabic-form="isolated" 
d="M820 81v345.001h85v-426h-646c-28.667 0 -55.667 4 -81 12s-47.5 21.167 -66.5 39.5s-34 42.166 -45 71.499s-16.5 65.333 -16.5 108v67h78v-68c0 -51.333 11.167 -89 33.5 -113s54.833 -36 97.5 -36h561zM384 464.001l0.000976562 146.997h37v-94
c11.334 10.6709 23.167 19.3379 35.499 26.001c12.333 6.66699 24.833 10 37.5 10c26 0 43.5 -7.16699 52.5 -21.5s13.5 -32.166 13.5 -53.499v-52h-205v36h28c0.666992 0.666992 1 1.33398 1 2.00098zM521.001 461.998l-0.00195312 16c0 11.333 -3.33301 20.333 -10 27
s-14.667 10 -24 10c-15.333 0 -28.166 -6 -38.499 -18s-18.166 -23.667 -23.499 -35h96z" />
    <glyph glyph-name="uni067E" unicode="&#x67e;" horiz-adv-x="970" arabic-form="isolated" 
d="M424 -60h55v-76h-55v76zM535 -60h55v-76h-55v76zM480 -159h55v-77h-55v77zM820 81v345.001h85v-426h-646c-28.667 0 -55.667 4 -81 12s-47.5 21.167 -66.5 39.5s-34 42.166 -45 71.499s-16.5 65.333 -16.5 108v67h78v-68c0 -51.333 11.167 -89 33.5 -113
s54.833 -36 97.5 -36h561z" />
    <glyph glyph-name="uni0686" unicode="&#x686;" horiz-adv-x="667" arabic-form="isolated" 
d="M252 -60h55v-76h-55v76zM363 -60h55v-76h-55v76zM308 -159h55v-77h-55v77zM250 81l264.002 -0.00195312c-1.34863 4 -3.34863 11.333 -6 22c-2.66699 10.667 -5.5 22.667 -8.5 36s-5.83301 27.5 -8.5 42.5s-5 28.5 -7 40.5c-10 63.333 -29.167 110.5 -57.5 141.5
s-60.833 46.5 -97.5 46.5c-46.667 0 -84.667 -12.833 -114 -38.5s-48 -59.5 -56 -101.5h-82c2.66699 30 10.667 58.333 24 85s31 50.167 53 70.5s47.833 36.333 77.5 48s62.167 17.5 97.5 17.5s66.833 -7 94.5 -21s51.5 -33.5 71.5 -58.5s36.167 -54.333 48.5 -88
s21.166 -70.5 26.499 -110.5c4.66699 -36.667 9 -66.167 13 -88.5s7.66699 -40.666 11 -54.999s6.33301 -26.5 9 -36.5s5.66699 -21 9 -33h-351c-45.333 0 -81.333 -10.667 -108 -32s-40 -47.333 -40 -78c0 -23.333 3.16699 -44.666 9.5 -63.999s17.166 -40.666 32.499 -64
h-78c-13.333 16.667 -24.5 35.667 -33.5 57s-13.5 46 -13.5 74c0 25.333 4.33301 49.333 13 72s22 42.667 40 60s40.833 31 68.5 41s60.5 15 98.5 15z" />
    <glyph glyph-name="uni0688" unicode="&#x688;" horiz-adv-x="520" arabic-form="isolated" 
d="M149 623l0.000976562 147h37v-94c11.333 10.6719 23.166 19.3389 35.499 26c12.333 6.66699 24.833 10 37.5 10c26 0 43.5 -7.16699 52.5 -21.5c9 -14.3359 13.5 -32.1689 13.5 -53.5v-52h-205v36h28c0.666992 0.675781 1 1.34277 1 2zM286.001 621v16
c0 11.333 -3.33301 20.333 -10 27s-14.667 10 -24 10c-15.334 0 -28.167 -6 -38.5 -18c-10.334 -12 -18.167 -23.667 -23.5 -35h96zM91.001 0l-0.00390625 81h290v127c0 24 -2.83301 47.333 -8.5 70c-5.66797 22.667 -14.835 42.5 -27.5 59.5
c-12.667 17 -28.667 30.667 -48 41s-42.666 15.5 -69.999 15.5h-92v80h77c36.667 0 70.334 -5 101.001 -15s57.334 -25.833 80.001 -47.5s40.334 -49.5 53.001 -83.5s19 -75 19 -123v-205h-374z" />
    <glyph glyph-name="uni0691" unicode="&#x691;" horiz-adv-x="320" arabic-form="isolated" 
d="M129 625l0.000976562 147h37v-94c11.333 10.6719 23.166 19.3389 35.499 26c12.333 6.66699 24.833 10 37.5 10c26 0 43.5 -7.16699 52.5 -21.5c9 -14.3359 13.5 -32.1689 13.5 -53.5v-52h-205v36h28c0.666992 0.667969 1 1.33496 1 2zM266.001 623v16
c0 11.333 -3.33301 20.333 -10 27s-14.667 10 -24 10c-15.334 0 -28.167 -6 -38.5 -18c-10.334 -12 -18.167 -23.667 -23.5 -35h96zM85.001 -156c14 0 26.167 2.50098 36.5 7.50098s19.166 13.333 26.499 25s12.833 27.167 16.5 46.5s5.5 43.666 5.5 72.999v430h85v-430
c0 -76 -12 -134 -36 -174s-64.667 -60 -122 -60c-14 0 -25.833 0.833008 -35.5 2.5c-9.66699 1.66504 -17.5 3.83203 -23.5 6.5c-7.33301 2.66699 -13.333 5.66699 -18 9v81c20.667 -11.333 42.334 -17 65.001 -17z" />
    <glyph glyph-name="uni0698" unicode="&#x698;" horiz-adv-x="320" arabic-form="isolated" 
d="M182 869h85v-117h-85v117zM267 715h85v-117h-85v117zM96 715h85v-117h-85v117zM85 -156c14 0 26.167 2.50098 36.5 7.50098s19.166 13.333 26.499 25s12.833 27.167 16.5 46.5s5.5 43.666 5.5 72.999v430h85v-430c0 -76 -12 -134 -36 -174s-64.667 -60 -122 -60
c-14 0 -25.833 0.833008 -35.5 2.5c-9.66699 1.66504 -17.5 3.83203 -23.5 6.5c-7.33301 2.66699 -13.333 5.66699 -18 9v81c20.667 -11.333 42.334 -17 65.001 -17z" />
    <glyph glyph-name="uni06A4" unicode="&#x6a4;" horiz-adv-x="1100" arabic-form="isolated" 
d="M781 869h85v-117h-85v117zM866 715h85v-117h-85v117zM695 715h85v-117h-85v117zM821 408c-43.333 0 -78.5 -14.833 -105.5 -44.5s-40.5 -69.167 -40.5 -118.5c0 -24.667 3.66699 -47.167 11 -67.5s17.5 -37.833 30.5 -52.5s28.333 -26 46 -34s37.167 -12 58.5 -12
c42.667 0 77.667 14 105 42s41 69.333 41 124s-13.5 95.5 -40.5 122.5s-62.167 40.5 -105.5 40.5zM259 0c-28.667 0 -55.665 4 -80.998 12s-47.5 21.167 -66.5 39.5s-34 42.166 -45 71.499s-16.5 65.333 -16.5 108v67h78v-68c0 -51.333 11.167 -89 33.5 -113
s54.833 -36 97.5 -36h393v4c-5.33301 4.66699 -11.833 12.834 -19.5 24.501s-14.834 25 -21.501 40s-12.334 30.833 -17.001 47.5s-7 32.667 -7 48c0 80 20.833 141 62.5 183c41.668 42 98.835 63 171.5 63c72.668 0 129.835 -21.333 171.501 -64
c41.667 -42.667 62.5 -103.334 62.5 -182c0 -78.667 -20.333 -139.167 -61 -181.5s-98.334 -63.5 -173.001 -63.5h-562z" />
    <glyph glyph-name="uni06A9" unicode="&#x6a9;" horiz-adv-x="888" arabic-form="isolated" 
d="M259 0c-28.667 0 -55.666 4 -80.999 12s-47.5 21.167 -66.5 39.5s-34 42.166 -45 71.499s-16.5 65.333 -16.5 108v67h78v-68c0 -51.333 11.167 -89 33.5 -113s54.833 -36 97.5 -36h486v140c0 32 -4 58.833 -12 80.5s-18.667 39.334 -32 53.001
c-13.3359 13.667 -28.6689 23.5 -46 29.5c-17.3359 6 -35.6689 9 -55 9h-255v81l240 241h114l-237 -241h133c43.333 0 80.166 -6.5 110.499 -19.5s55 -30.667 74 -53s32.667 -49 41 -80s12.5 -64.5 12.5 -100.5v-221h-574z" />
    <glyph glyph-name="uni06AF" unicode="&#x6af;" horiz-adv-x="888" arabic-form="isolated" 
d="M237 474h-79l239 241h81zM259 0c-28.667 0 -55.666 4 -80.999 12s-47.5 21.167 -66.5 39.5s-34 42.166 -45 71.499s-16.5 65.333 -16.5 108v67h78v-68c0 -51.333 11.167 -89 33.5 -113s54.833 -36 97.5 -36h486v140c0 32 -4 58.833 -12 80.5s-18.667 39.334 -32 53.001
c-13.3359 13.667 -28.6689 23.5 -46 29.5c-17.3359 6 -35.6689 9 -55 9h-255v81l240 241h114l-237 -241h133c43.333 0 80.166 -6.5 110.499 -19.5s55 -30.667 74 -53s32.667 -49 41 -80s12.5 -64.5 12.5 -100.5v-221h-574z" />
    <glyph glyph-name="uni06BA" unicode="&#x6ba;" horiz-adv-x="844" arabic-form="isolated" 
d="M380 -238c-110.667 0 -195.833 36.334 -255.5 109.001s-89.5 180 -89.5 322v87h84v-87c0 -116.667 20.667 -204 62 -262s107 -87 197 -87c44.667 0 85 7 121 21s66.333 35.333 91 64s43.667 65 57 109s20 95.667 20 155v108h84v-123c0 -50 -6 -99.833 -18 -149.5
s-32.167 -94.334 -60.5 -134.001s-66.333 -71.667 -114 -96s-107.167 -36.5 -178.5 -36.5z" />
    <glyph glyph-name="uni06BE" unicode="&#x6be;" horiz-adv-x="871" arabic-form="isolated" 
d="M238 198c0 26 3.33203 49 9.99902 69s16 36.833 28 50.5s26 24.5 42 32.5s33.333 13.333 52 16c19.333 37.333 47.333 67.5 84 90.5s79 34.5 127 34.5c82.667 0 142.5 -21.833 179.5 -65.5s55.5 -105.834 55.5 -186.5v-239h-606c-28 -0 -50.167 -4.16699 -66.5 -12.5
s-24.5 -25.5 -24.5 -51.5v-18h-89v24c0 50 15.333 85.667 46 107s75.334 32 134.001 32h75c-14 11.333 -25.333 26.333 -34 45s-13 42.667 -13 72zM553.999 198c0 -29.333 -4.49805 -53.333 -13.498 -72s-20.5 -33.667 -34.5 -45h226v158
c0 29.333 -3.83301 54.833 -11.5 76.5s-18.334 39.5 -32.001 53.5s-29.667 24.333 -48 31c-18.3359 6.66699 -38.1689 10 -59.5 10c-24.667 0 -47.334 -5.16699 -68.001 -15.5s-37.667 -23.166 -51 -38.499c27.333 -11.333 49.5 -29.833 66.5 -55.5
s25.5 -59.834 25.5 -102.501zM396.001 87c11.333 0 22.3311 2.66797 32.998 8.00098s20.334 12.833 29.001 22.5s15.5 21.334 20.5 35.001s7.5 28.834 7.5 45.5c0 33.333 -9 59 -27 77s-39 27 -63 27s-45 -9 -63 -27s-27 -43.667 -27 -77c0 -16.667 2.5 -31.834 7.5 -45.501
s11.833 -25.334 20.5 -35.001s18.334 -17.167 29.001 -22.5s21.667 -8 33 -8z" />
    <glyph glyph-name="uni06C1" unicode="&#x6c1;" horiz-adv-x="556" arabic-form="isolated" 
d="M278 -11c-37.333 0 -70.5 6.16699 -99.5 18.5s-53.333 29.5 -73 51.5s-34.667 48.333 -45 79s-15.5 64.667 -15.5 102c0 36.667 5.16699 70.5 15.5 101.5s25.333 57.5 45 79.5s44 39.167 73 51.5s62.167 18.5 99.5 18.5s70.5 -6.16699 99.5 -18.5s53.333 -29.5 73 -51.5
s34.667 -48.5 45 -79.5s15.5 -64.833 15.5 -101.5c0 -37.333 -5.16699 -71.333 -15.5 -102s-25.333 -57 -45 -79s-44 -39.167 -73 -51.5s-62.167 -18.5 -99.5 -18.5zM278 72c24.667 0 46.167 4.16602 64.5 12.499s33.5 19.833 45.5 34.5s21 32.334 27 53.001s9 43.334 9 68
c0 24.667 -3 47.334 -9 68.001s-15 38.334 -27 53.001s-27.167 26.167 -45.5 34.5s-39.833 12.5 -64.5 12.5s-46.167 -4.16699 -64.5 -12.5s-33.5 -19.833 -45.5 -34.5s-21 -32.334 -27 -53c-6 -20.667 -9 -43.334 -9 -68c0 -24.667 3 -47.334 9 -68.001
s15 -38.334 27 -53.001s27.167 -26.167 45.5 -34.5s39.833 -12.5 64.5 -12.5z" />
    <glyph glyph-name="uni06C2.fina" unicode="&#x6c2;" horiz-adv-x="608" 
d="M208 661l38 0.000976562v3c-4.66699 5.33301 -9 12.5 -13 21.5s-6 18.167 -6 27.5c0 21.333 6.33301 38.833 19 52.5s31.667 20.5 57 20.5c19.334 0 36.167 -5.83301 50.5 -17.5s21.833 -29.5 22.5 -53.5h-35c-0.668945 9.33301 -4.33594 18 -11 26
c-6.66699 8 -15.667 12 -27 12c-10 0 -18.667 -3.83301 -26 -11.5s-11 -18.834 -11 -33.501c0 -15.333 4.16699 -27 12.5 -35s18.5 -12 30.5 -12h72v-36h-173v36zM45 241.001c0 25.333 3.67188 51.5 11.0049 78.5s19.166 51.5 35.499 73.5s37.666 40.167 63.999 54.5
s58.5 21.5 96.5 21.5h211v-285c0 -35.333 7.5 -61.333 22.5 -78s39.5 -25 73.5 -25h28c5.33301 0 10.166 -0.666992 14.499 -2s6.5 -5.33301 6.5 -12v-56c0 -7.33301 -7 -11 -21 -11h-28c-23.333 0 -45.833 3.5 -67.5 10.5c-21.668 7 -40.835 18 -57.501 33
c-16.667 15 -30 34.167 -40 57.5s-15 51 -15 83v204h-127c-18 0 -34.667 -3.5 -50 -10.5s-28.833 -16.833 -40.5 -29.5s-20.667 -28.167 -27 -46.5c-6.33398 -18.333 -9.50098 -38.5 -9.50098 -60.5c0 -4 -0.166992 -12.5 -0.5 -25.5s-0.5 -26.167 -0.5 -39.5v-53h-79v118z
" />
    <glyph glyph-name="uni06C3.fina" unicode="&#x6c3;" horiz-adv-x="592" 
d="M333 715h85v-117h-85v117zM162 715h85v-117h-85v117zM564 0c-21.335 0 -40.6699 3.16406 -58.001 9.49707c-17.333 6.33301 -32.833 14.666 -46.5 24.999s-25.167 22.5 -34.5 36.5s-17 29 -23 45c-15.333 -21.333 -35.666 -40.166 -60.999 -56.499
s-54.666 -24.5 -87.999 -24.5c-25.333 0 -50.333 4 -75 12s-46.834 20.5 -66.501 37.5s-35.667 38.833 -48 65.5s-18.5 58.667 -18.5 96c0 32 3.83301 61.833 11.5 89.5s20 51.834 37 72.501s39 36.834 66 48.501s59.5 17.5 97.5 17.5h211v-267
c0 -24.667 2.66699 -45.167 8 -61.5s12.333 -29.166 21 -38.499s18.834 -16 30.501 -20s23.834 -6 36.5 -6h28c5.33301 0 10.166 -0.666992 14.499 -2s6.5 -5.33301 6.5 -12v-56c0 -7.33301 -7 -11 -21 -11h-28zM252.998 116.997c16 0 31.833 2.5 47.5 7.5
s29.667 12.5 42 22.5s22.333 22.833 30 38.5s11.5 34.5 11.5 56.5v151h-127c-18 0 -34.667 -3.5 -50 -10.5s-28.833 -16.833 -40.5 -29.5s-20.667 -28.167 -27 -46.5s-9.5 -38.5 -9.5 -60.5s3.5 -41.167 10.5 -57.5s16.333 -29.833 28 -40.5s24.834 -18.5 39.5 -23.5
c14.667 -5 29.667 -7.5 45 -7.5z" />
    <glyph glyph-name="uni06CC" unicode="&#x6cc;" horiz-adv-x="779" arabic-form="isolated" 
d="M395 -157c34.667 0 67.501 2.33691 98.501 7.00391s58 12.167 81 22.5s41.167 23.5 54.5 39.5s20 35 20 57c0 12.667 -2.33301 23.334 -7 32.001s-13 16.5 -25 23.5s-28.5 14.167 -49.5 21.5s-47.5 16.333 -79.5 27c-54 17.333 -95.333 43.166 -124 77.499
s-43 74.5 -43 120.5c0 28 3.5 55.167 10.5 81.5c7 26.334 18.5 49.667 34.5 70s37.167 36.833 63.5 49.5s58.5 19 96.5 19c58 0 103.833 -18 137.5 -54c33.6689 -36 52.8359 -87.333 57.5 -154h-75c-5.33301 44 -18.833 76.167 -40.5 96.5s-48.167 30.5 -79.5 30.5
c-36 0 -65 -11.833 -87 -35.5s-33 -58.167 -33 -103.5c0 -17.333 3.83301 -32.5 11.5 -45.5s18.667 -24.5 33 -34.5s32 -19.333 53 -28s44.5 -17.334 70.5 -26.001c56.667 -19.333 97.5 -42 122.5 -68s37.5 -59.333 37.5 -100c0 -28.667 -6.66699 -55.667 -20 -81
s-33.833 -47.333 -61.5 -66s-62.834 -33.334 -105.501 -44.001s-93.667 -16 -153 -16c-66 0 -121.667 8.16699 -167 24.5s-82.166 40 -110.499 71s-48.833 68.667 -61.5 113s-19.334 94.166 -20.001 149.499h80c0 -56 6.33301 -102 19 -138s31 -64.333 55 -85
s53.333 -34.834 88 -42.501s74 -11.5 118 -11.5z" />
    <glyph glyph-name="uni06D2" unicode="&#x6d2;" horiz-adv-x="886" arabic-form="isolated" 
d="M50 224c0 28.667 4.16699 55.666 12.5 80.999s21.833 47.5 40.5 66.5s43 34 73 45s66.333 16.5 109 16.5h174v-78h-175c-51.333 0 -89 -11.167 -113 -33.5s-36 -54.833 -36 -97.5v-143h497c42.667 0 75.167 12 97.5 36s33.5 61.667 33.5 113v69h78v-68
c0 -42.667 -5.5 -78.667 -16.5 -108s-26 -53.166 -45 -71.499s-41.167 -31.5 -66.5 -39.5s-52.333 -12 -81 -12h-582v224z" />
    <glyph glyph-name="uni06D3" unicode="&#x6d3;" horiz-adv-x="886" arabic-form="isolated" 
d="M308 617l38.001 0.000976562v3c-4.66699 5.33301 -9 12.5 -13 21.5s-6 18.167 -6 27.5c0 21.333 6.33301 38.833 19 52.5s31.667 20.5 57 20.5c19.334 0 36.167 -5.83301 50.499 -17.5c14.333 -11.667 21.833 -29.5 22.5 -53.5h-35c-0.669922 9.33301 -4.33691 18 -11 26
c-6.66699 8 -15.667 12 -27 12c-10 0 -18.667 -3.83301 -26 -11.5s-11 -18.834 -11 -33.501c0 -15.333 4.16699 -27 12.5 -35s18.5 -12 30.5 -12h72v-36h-173v36zM50.001 224.001c0 28.667 4.16699 55.666 12.5 80.999s21.833 47.5 40.5 66.5s43 34 73 45
s66.333 16.5 109 16.5h174v-78h-175c-51.333 0 -89 -11.167 -113 -33.5s-36 -54.833 -36 -97.5v-143h497c42.667 0 75.167 12 97.5 36s33.5 61.667 33.5 113v69h78v-68c0 -42.667 -5.5 -78.667 -16.5 -108s-26 -53.166 -45 -71.499s-41.167 -31.5 -66.5 -39.5
s-52.333 -12 -81 -12h-582v224z" />
    <glyph glyph-name="uni06D5.fina" unicode="&#x6d5;" horiz-adv-x="592" 
d="M564 0c-21.335 0 -40.6699 3.16406 -58.001 9.49707c-17.333 6.33301 -32.833 14.666 -46.5 24.999s-25.167 22.5 -34.5 36.5s-17 29 -23 45c-15.333 -21.333 -35.666 -40.166 -60.999 -56.499s-54.666 -24.5 -87.999 -24.5c-25.333 0 -50.333 4 -75 12
s-46.834 20.5 -66.501 37.5s-35.667 38.833 -48 65.5s-18.5 58.667 -18.5 96c0 32 3.83301 61.833 11.5 89.5s20 51.834 37 72.501s39 36.834 66 48.501s59.5 17.5 97.5 17.5h211v-267c0 -24.667 2.66699 -45.167 8 -61.5s12.333 -29.166 21 -38.499s18.834 -16 30.501 -20
s23.834 -6 36.5 -6h28c5.33301 0 10.166 -0.666992 14.499 -2s6.5 -5.33301 6.5 -12v-56c0 -7.33301 -7 -11 -21 -11h-28zM252.998 116.997c16 0 31.833 2.5 47.5 7.5s29.667 12.5 42 22.5s22.333 22.833 30 38.5s11.5 34.5 11.5 56.5v151h-127
c-18 0 -34.667 -3.5 -50 -10.5s-28.833 -16.833 -40.5 -29.5s-20.667 -28.167 -27 -46.5s-9.5 -38.5 -9.5 -60.5s3.5 -41.167 10.5 -57.5s16.333 -29.833 28 -40.5s24.834 -18.5 39.5 -23.5c14.667 -5 29.667 -7.5 45 -7.5z" />
    <glyph glyph-name="uniFB51" unicode="&#x671;" horiz-adv-x="240" arabic-form="final" 
d="M171 947c26 0 43.5 -7.16797 52.5 -21.501c9 -14.3369 13.5 -32.1699 13.5 -53.5v-52h-205v36h28c4.66699 12 11.167 23.333 19.5 34c8.33301 10.6738 17.5 20.3408 27.5 29.001c10 8.66699 20.5 15.5 31.5 20.5s21.833 7.5 32.5 7.5zM198 855.999l-0.00195312 16
c0 11.333 -3.33301 20.333 -10 27s-14.667 10 -24 10c-15.333 0 -28.166 -6 -38.499 -18s-18.166 -23.667 -23.499 -35h96zM239.998 80.999c5.33301 0 10.167 -0.666992 14.5 -2s6.5 -5.33301 6.5 -12v-56c0 -7.33301 -7 -11 -21 -11h-175v715h85v-634h90z" />
    <glyph glyph-name="uniFB57" unicode="&#x67e;" horiz-adv-x="1056" arabic-form="final" 
d="M421 -60h55v-76h-55v76zM532 -60h55v-76h-55v76zM477 -159h55v-77h-55v77zM1022 0c-14 0 -28.502 2.33301 -43.502 7s-29 11 -42 19s-24.5 17.167 -34.5 27.5s-17.333 21.5 -22 33.5c-15.3369 -30 -36.1699 -52 -62.5 -66c-26.3359 -14 -54.1689 -21 -83.499 -21h-475
c-28.667 0 -55.667 4 -81 12s-47.5 21.167 -66.5 39.5s-34 42.166 -45 71.499s-16.5 65.333 -16.5 108v67h78v-68c0 -51.333 11.167 -89 33.5 -113s54.833 -36 97.5 -36h476c22.667 0 42.334 7.5 59.001 22.5s25 40.833 25 77.5v245h84v-216
c0 -19.333 3.16699 -36.833 9.5 -52.5s15 -29.167 26 -40.5s23.667 -20.166 38 -26.499s29.5 -9.5 45.5 -9.5h34c5.3418 0 10.1748 -0.666992 14.5 -2c4.33301 -1.33301 6.5 -5.33301 6.5 -12v-56c0 -7.33301 -7 -11 -21 -11h-34z" />
    <glyph glyph-name="uniFB58" unicode="&#x67e;" horiz-adv-x="360" arabic-form="initial" 
d="M118 -60h55v-76h-55v76zM229 -60h55v-76h-55v76zM174 -159h55v-77h-55v77zM199 81l0.000976562 345h85v-426h-284c-14 0 -21 3.66699 -21 11v56c0 6.66699 2.16699 10.667 6.5 12s9.16602 2 14.499 2h199z" />
    <glyph glyph-name="uniFB59" unicode="&#x67e;" horiz-adv-x="475" arabic-form="medial" 
d="M202 -60h55v-76h-55v76zM313 -60h55v-76h-55v76zM258 -159h55v-77h-55v77zM432 0c-14 0 -28.5029 2.33496 -43.5029 7.00195s-29 11 -42 19s-24.5 17.167 -34.5 27.5s-17.333 21.5 -22 33.5c-15.333 -30 -36.166 -52 -62.499 -66s-54.166 -21 -83.499 -21h-144
c-14 0 -21 3.66699 -21 11v56c0 6.66699 2.16699 10.667 6.5 12s9.16602 2 14.499 2h145c22.667 0 42.334 7.5 59.001 22.5s25 40.833 25 77.5v245h84v-210c0 -20 3.16699 -38.333 9.5 -55s14.833 -30.834 25.5 -42.501s23.334 -20.834 38.001 -27.501s30 -10 46 -10h43
c5.33691 0 10.1699 -0.666992 14.5 -2c4.33301 -1.33301 6.5 -5.33301 6.5 -12v-56c0 -7.33301 -7 -11 -21 -11h-43z" />
    <glyph glyph-name="uniFB67" unicode="&#x679;" horiz-adv-x="1056" arabic-form="final" 
d="M1022 0c-14 0 -28.502 2.33301 -43.502 7s-29 11 -42 19s-24.5 17.167 -34.5 27.5s-17.333 21.5 -22 33.5c-15.3369 -30 -36.1699 -52 -62.5 -66c-26.3359 -14 -54.1689 -21 -83.499 -21h-475c-28.667 0 -55.667 4 -81 12s-47.5 21.167 -66.5 39.5s-34 42.166 -45 71.499
s-16.5 65.333 -16.5 108v67h78v-68c0 -51.333 11.167 -89 33.5 -113s54.833 -36 97.5 -36h476c22.667 0 42.334 7.5 59.001 22.5s25 40.833 25 77.5v245h84v-216c0 -19.333 3.16699 -36.833 9.5 -52.5s15 -29.167 26 -40.5s23.667 -20.166 38 -26.499s29.5 -9.5 45.5 -9.5
h34c5.3418 0 10.1748 -0.666992 14.5 -2c4.33301 -1.33301 6.5 -5.33301 6.5 -12v-56c0 -7.33301 -7 -11 -21 -11h-34zM376.998 464v146.998h37v-94c11.334 10.6709 23.167 19.3379 35.5 26c12.333 6.66699 24.833 10 37.5 10c26 0 43.5 -7.16699 52.5 -21.5
s13.5 -32.166 13.5 -53.499v-52h-205v36h28c0.666992 0.666992 1 1.33398 1 2.00098zM513.998 461.998l-0.00195312 16c0 11.333 -3.33301 20.333 -10 27s-14.667 10 -24 10c-15.333 0 -28.166 -6 -38.499 -18s-18.166 -23.667 -23.499 -35h96z" />
    <glyph glyph-name="uniFB68" unicode="&#x679;" horiz-adv-x="349" arabic-form="initial" 
d="M108 625l0.000976562 147h37v-94c11.333 10.6719 23.166 19.3389 35.499 26c12.333 6.66699 24.833 10 37.5 10c26 0 43.5 -7.16699 52.5 -21.5c9 -14.3359 13.5 -32.1689 13.5 -53.5v-52h-205v36h28c0.666992 0.667969 1 1.33496 1 2zM245.001 623v16
c0 11.333 -3.33301 20.333 -10 27s-14.667 10 -24 10c-15.334 0 -28.167 -6 -38.5 -18c-10.334 -12 -18.167 -23.667 -23.5 -35h96zM199.001 81l0.000976562 345h85v-426h-284c-14 0 -21 3.66699 -21 11v56c0 6.66699 2.16699 10.667 6.5 12s9.16602 2 14.499 2h199z" />
    <glyph glyph-name="uniFB69" unicode="&#x679;" horiz-adv-x="475" arabic-form="medial" 
d="M180 623l0.000976562 147h37v-94c11.333 10.6719 23.166 19.3389 35.499 26c12.333 6.66699 24.833 10 37.5 10c26 0 43.5 -7.16699 52.5 -21.5c9 -14.3359 13.5 -32.1689 13.5 -53.5v-52h-205v36h28c0.666992 0.675781 1 1.34277 1 2zM317.001 621l-0.000976562 16
c0 11.333 -3.33301 20.333 -10 27s-14.667 10 -24 10c-15.333 0 -28.166 -6 -38.499 -18c-10.334 -12 -18.167 -23.667 -23.5 -35h96zM432 0c-14 0 -28.5029 2.33496 -43.5029 7.00195s-29 11 -42 19s-24.5 17.167 -34.5 27.5s-17.333 21.5 -22 33.5
c-15.333 -30 -36.166 -52 -62.499 -66s-54.166 -21 -83.499 -21h-144c-14 0 -21 3.66699 -21 11v56c0 6.66699 2.16699 10.667 6.5 12s9.16602 2 14.499 2h145c22.667 0 42.334 7.5 59.001 22.5s25 40.833 25 77.5v245h84v-210c0 -20 3.16699 -38.333 9.5 -55
s14.833 -30.834 25.5 -42.501s23.334 -20.834 38.001 -27.501s30 -10 46 -10h43c5.33691 0 10.1699 -0.666992 14.5 -2c4.33301 -1.33301 6.5 -5.33301 6.5 -12v-56c0 -7.33301 -7 -11 -21 -11h-43z" />
    <glyph glyph-name="uniFB6B" unicode="&#x6a4;" horiz-adv-x="1135" arabic-form="final" 
d="M788 869h85v-117h-85v117zM873 715h85v-117h-85v117zM702 715h85v-117h-85v117zM824 407c-46.667 0 -82.5 -13.667 -107.5 -41s-37.5 -67.666 -37.5 -120.999s12.5 -94.666 37.5 -123.999s60.833 -44 107.5 -44s82.5 14.667 107.5 44s37.5 70.666 37.5 123.999
s-12.5 93.666 -37.5 120.999s-60.833 41 -107.5 41zM259 0c-28.667 0 -55.6641 4 -80.9971 12s-47.5 21.167 -66.5 39.5s-34 42.166 -45 71.499s-16.5 65.333 -16.5 108v67h78v-68c0 -51.333 11.167 -89 33.5 -113s54.833 -36 97.5 -36h395v4
c-5.33301 4.66699 -11.833 12.834 -19.5 24.501s-14.834 25 -21.501 40s-12.334 30.833 -17.001 47.5s-7 32.667 -7 48c0 79.334 21.167 140.167 63.5 182.5s99.5 63.5 171.5 63.5s129 -20.5 171 -61.5s63 -102.5 63 -184.5c0 -15.333 -2.33301 -31 -7 -47
c-4.68262 -16 -10.3496 -31.167 -17 -45.5c-6.66699 -14.333 -13.834 -27.5 -21.501 -39.5s-14.167 -21.333 -19.5 -28v-4h142c5.36816 0 10.2012 -0.666992 14.5 -2c4.33301 -1.33301 6.5 -5.33301 6.5 -12v-56c0 -7.33301 -7 -11 -21 -11h-876z" />
    <glyph glyph-name="uniFB6C" unicode="&#x6a4;" horiz-adv-x="608" arabic-form="initial" 
d="M298 869h85v-117h-85v117zM383 715h85v-117h-85v117zM212 715h85v-117h-85v117zM0 0c-14 0 -21 3.66602 -21 10.999v56c0 6.66699 2.16699 10.667 6.5 12s9.16602 2 14.499 2h160v4c-5.33301 4.66699 -11.833 12.834 -19.5 24.501s-14.834 25 -21.501 40
s-12.334 30.833 -17 47.5c-4.66699 16.667 -7 32.667 -7 48c0 80 20.833 141 62.5 183s98.834 63 171.501 63s129.834 -21.333 171.501 -64s62.5 -103.334 62.5 -182c0 -78.667 -20.333 -139.167 -61 -181.5s-98.334 -63.5 -173 -63.5h-329zM329 407.999
c-43.333 0 -78.5 -14.833 -105.5 -44.5s-40.5 -69.167 -40.5 -118.5c0 -24.667 3.66699 -47.167 11 -67.5s17.5 -37.833 30.5 -52.5s28.333 -26 46 -34s37.167 -12 58.5 -12c42.667 0 77.667 14 105 42s41 69.333 41 124s-13.5 95.5 -40.5 122.5s-62.167 40.5 -105.5 40.5z
" />
    <glyph glyph-name="uniFB6D" unicode="&#x6a4;" horiz-adv-x="614" arabic-form="medial" 
d="M267 869h85v-117h-85v117zM352 715h85v-117h-85v117zM181 715h85v-117h-85v117zM303 407c-46.667 0 -82.5 -13.667 -107.5 -41s-37.5 -67.666 -37.5 -120.999s12.5 -94.666 37.5 -123.999s60.833 -44 107.5 -44s82.5 14.667 107.5 44s37.5 70.666 37.5 123.999
s-12.5 93.666 -37.5 120.999s-60.833 41 -107.5 41zM0 0c-14 0 -20.9951 3.66602 -20.9951 10.999v56c0 6.66699 2.16699 10.667 6.5 12s9.16602 2 14.499 2h133v4c-5.33301 4.66699 -11.833 12.834 -19.5 24.501s-14.834 25 -21.5 40
c-6.66699 15 -12.334 30.833 -17.001 47.5s-7 32.667 -7 48c0 79.334 21.167 140.167 63.5 182.5s99.5 63.5 171.5 63.5s129 -20.5 171 -61.5s63 -102.5 63 -184.5c0 -15.333 -2.33301 -31 -7 -47s-10.334 -31.167 -17.001 -45.5
c-6.66895 -14.333 -13.8359 -27.5 -21.501 -39.5c-7.66699 -12 -14.167 -21.333 -19.5 -28v-4h142c5.33301 0 10.166 -0.666992 14.499 -2s6.5 -5.33301 6.5 -12v-56c0 -7.33301 -7 -11 -21 -11h-614z" />
    <glyph glyph-name="uniFB7B" unicode="&#x686;" horiz-adv-x="761" arabic-form="final" 
d="M252 -60h55v-76h-55v76zM363 -60h55v-76h-55v76zM308 -159h55v-77h-55v77zM512 81l0.00292969 157.997c0 26.667 -4.16699 50.667 -12.5 72s-19.666 39.333 -33.999 54s-30.833 25.834 -49.5 33.501s-38.334 11.5 -59 11.5c-46.667 0 -86.334 -12.833 -119.001 -38.5
s-53 -59.5 -61 -101.5h-82c2.66699 30 10.834 58.333 24.501 85s31.834 50.167 54.501 70.5s49.5 36.333 80.5 48s65.167 17.5 102.5 17.5c38 0 72 -6 102 -18s55.167 -29.333 75.5 -52s36 -50.167 47 -82.5s16.5 -68.5 16.5 -108.5v-45c0 -34.667 10.333 -60.667 31 -78
s46 -26 76 -26h56c5.33301 0 10.166 -0.666992 14.499 -2s6.5 -5.33301 6.5 -12v-56c0 -7.33301 -7 -11 -21 -11h-57c-9.33301 0 -19.333 1.5 -30 4.5s-20.834 7.33301 -30.501 13s-18.334 12.5 -26.001 20.5s-13.5 17 -17.5 27h-2
c-0.666992 -7.33301 -3.16699 -17 -7.5 -29c-4.33789 -12 -11.1709 -24 -20.5 -36h-309c-26.667 0 -49.334 -2.83301 -68.001 -8.5s-34 -13.5 -46 -23.5s-20.667 -21.667 -26 -35s-8 -27.666 -8 -42.999c0 -23.333 3.16699 -44.666 9.5 -63.999s17.166 -40.666 32.499 -64
h-78c-13.333 16.667 -24.5 35.667 -33.5 57s-13.5 46 -13.5 74c0 25.333 4.33301 49.333 13 72s22 42.667 40 60s40.833 31 68.5 41s60.5 15 98.5 15h262z" />
    <glyph glyph-name="uniFB7C" unicode="&#x686;" horiz-adv-x="728" arabic-form="initial" 
d="M252 -60h55v-76h-55v76zM363 -60h55v-76h-55v76zM308 -159h55v-77h-55v77zM355 410c-21.333 0 -42.5 -3.83398 -63.5 -11.501c-21 -7.66797 -40.333 -17.835 -58 -30.5c-17.667 -12.667 -32.5 -27.5 -44.5 -44.5s-19.667 -34.833 -23 -53.5h-82
c2.66699 30 11.334 58.333 26.001 85s33.834 50.167 57.501 70.5s51.5 36.333 83.5 48s66.667 17.5 104 17.5c41.333 0 78 -7 110 -21s59.667 -33.5 83 -58.5s42 -54.333 56 -88s23.667 -70.5 29 -110.5c4.67676 -36.667 8.84375 -66.167 12.501 -88.5
c3.66699 -22.333 7 -40.666 10 -54.999s5.83301 -26.5 8.5 -36.5s5.66699 -21 9 -33h-673c-14 0 -21 3.66699 -21 11v56c0 6.66699 2.16699 10.667 6.5 12s9.16602 2 14.499 2h576c-1.33301 4 -3.33301 11.333 -6 22s-5.33398 22.667 -8.00098 36
s-5.33398 27.5 -8.00098 42.5s-5 28.5 -7 40.5c-10 63.333 -32.5 110.5 -67.5 141.5s-76.5 46.5 -124.5 46.5z" />
    <glyph glyph-name="uniFB7D" unicode="&#x686;" horiz-adv-x="787" arabic-form="medial" 
d="M252 -60h55v-76h-55v76zM363 -60h55v-76h-55v76zM308 -159h55v-77h-55v77zM547 81v157.999c0 26.667 -6 50.667 -18 72s-27.5 39.333 -46.5 54s-40.5 25.834 -64.5 33.501s-48 11.5 -72 11.5c-21.333 0 -42.5 -3.83301 -63.5 -11.5
c-21 -7.66797 -40.333 -17.835 -58 -30.5c-17.667 -12.667 -32.5 -27.5 -44.5 -44.5s-19.667 -34.833 -23 -53.5h-82c2.66699 30 11.334 58.333 26.001 85s33.834 50.167 57.501 70.5s51.5 36.333 83.5 48s66.667 17.5 104 17.5c41.333 0 79.5 -6 114.5 -18
c35.001 -12 65.334 -29.333 91 -52c25.667 -22.667 45.667 -50.167 60 -82.5s21.5 -68.5 21.5 -108.5v-45c0 -34.667 10.333 -60.667 31 -78s46 -26 76 -26h47c5.33301 0 10.166 -0.666992 14.499 -2s6.5 -5.33301 6.5 -12v-56c0 -7.33301 -7 -11 -21 -11h-48
c-9.33887 0 -19.1719 1.5 -29.5 4.5c-10.333 3 -20.333 7.33301 -30 13s-18.167 12.5 -25.5 20.5s-13 17 -17 27h-4c-0.666992 -7.33301 -3.16699 -17 -7.5 -29c-4.34277 -12 -11.1758 -24 -20.5 -36h-605c-14 0 -21 3.66699 -21 11v56c0 6.66699 2.16699 10.667 6.5 12
s9.16602 2 14.499 2h547z" />
    <glyph glyph-name="uniFB89" unicode="&#x688;" horiz-adv-x="626" arabic-form="final" 
d="M149 625l0.000976562 147h37v-94c11.333 10.6719 23.166 19.3389 35.499 26c12.333 6.66699 24.833 10 37.5 10c26 0 43.5 -7.16699 52.5 -21.5c9 -14.3359 13.5 -32.1689 13.5 -53.5v-52h-205v36h28c0.666992 0.667969 1 1.33496 1 2zM286.001 623v16
c0 11.333 -3.33301 20.333 -10 27s-14.667 10 -24 10c-15.334 0 -28.167 -6 -38.5 -18c-10.334 -12 -18.167 -23.667 -23.5 -35h96zM626.001 81c5.33301 0 10.1621 -0.666992 14.4951 -2s6.5 -5.33301 6.5 -12v-56c0 -7.33301 -7 -11 -21 -11h-48
c-9.33789 0 -19.1709 1.5 -29.5 4.5c-10.333 3 -20.333 7.33301 -30 13s-18.167 12.5 -25.5 20.5s-13 17 -17 27h-4c-0.666992 -7.33301 -3.16699 -17 -7.5 -29s-11.166 -24 -20.499 -36h-346v81h290v127c0 24 -2.83301 47.333 -8.5 70
c-5.66797 22.667 -14.835 42.5 -27.5 59.5c-12.667 17 -28.667 30.667 -48 41s-42.666 15.5 -69.999 15.5h-92v80h77c36.667 0 70.334 -5 101.001 -15s57.334 -25.833 80.001 -47.5s40.334 -49.5 53.001 -83.5s19 -75 19 -123v-14c0 -36.667 10.333 -64.167 31 -82.5
s46 -27.5 76 -27.5h47z" />
    <glyph glyph-name="uniFB8B" unicode="&#x698;" horiz-adv-x="414" arabic-form="final" 
d="M180 869h85v-117h-85v117zM265 715h85v-117h-85v117zM94 715h85v-117h-85v117zM414 81c5.33691 0 10.1689 -0.666016 14.499 -1.99902c4.33301 -1.33301 6.5 -5.33301 6.5 -12v-56c0 -7.33301 -7 -11 -21 -11h-53c-10 0 -20.667 1.66699 -32 5
s-22.166 8.33301 -32.499 15s-19.333 14.5 -27 23.5s-12.5 19.167 -14.5 30.5v-78c0 -76 -12 -134 -36 -174s-64.667 -60 -122 -60c-14 0 -25.833 0.833008 -35.5 2.5c-9.66699 1.66504 -17.5 3.83203 -23.5 6.5c-7.33301 2.66699 -13.333 5.66699 -18 9v81
c20.667 -11.333 42.334 -17 65.001 -17c14 0 26.167 2.5 36.5 7.5s19.166 13.333 26.499 25s12.833 27.167 16.5 46.5s5.5 43.666 5.5 72.999v430h85v-235c0 -36.667 10.333 -64.167 31 -82.5s46 -27.5 76 -27.5h52z" />
    <glyph glyph-name="uniFB8D" unicode="&#x691;" horiz-adv-x="414" arabic-form="final" 
d="M117 625l0.000976562 147h37v-94c11.333 10.6719 23.166 19.3389 35.499 26c12.333 6.66699 24.833 10 37.5 10c26 0 43.5 -7.16699 52.5 -21.5c9 -14.3359 13.5 -32.1689 13.5 -53.5v-52h-205v36h28c0.666992 0.667969 1 1.33496 1 2zM254.001 623v16
c0 11.333 -3.33301 20.333 -10 27s-14.667 10 -24 10c-15.334 0 -28.167 -6 -38.5 -18c-10.334 -12 -18.167 -23.667 -23.5 -35h96zM414.001 81c5.33691 0 10.1689 -0.666016 14.499 -1.99902c4.33301 -1.33301 6.5 -5.33301 6.5 -12v-56c0 -7.33301 -7 -11 -21 -11h-53
c-10 0 -20.667 1.66699 -32 5s-22.166 8.33301 -32.499 15s-19.333 14.5 -27 23.5s-12.5 19.167 -14.5 30.5v-78c0 -76 -12 -134 -36 -174s-64.667 -60 -122 -60c-14 0 -25.833 0.833008 -35.5 2.5c-9.66699 1.66504 -17.5 3.83203 -23.5 6.5
c-7.33301 2.66699 -13.333 5.66699 -18 9v81c20.667 -11.333 42.334 -17 65.001 -17c14 0 26.167 2.5 36.5 7.5s19.166 13.333 26.499 25s12.833 27.167 16.5 46.5s5.5 43.666 5.5 72.999v430h85v-235c0 -36.667 10.333 -64.167 31 -82.5s46 -27.5 76 -27.5h52z" />
    <glyph glyph-name="uniFB8F" unicode="&#x6a9;" horiz-adv-x="990" arabic-form="final" 
d="M990 81c5.33301 0 10.168 -0.666992 14.501 -2s6.5 -5.33301 6.5 -12v-56c0 -7.33301 -7 -11 -21 -11h-51c-9.34082 0 -19.1738 1.5 -29.5 4.5c-10.333 3 -20.333 7.16699 -30 12.5s-18.167 11.833 -25.5 19.5s-13 16.5 -17 26.5h-4
c-1.33301 -7.33301 -4 -16.833 -8 -28.5s-10.667 -23.167 -20 -34.5h-546c-28.667 0 -55.667 4 -81 12s-47.5 21.167 -66.5 39.5s-34 42.166 -45 71.499s-16.5 65.333 -16.5 108v67h78v-68c0 -51.333 11.167 -89 33.5 -113s54.833 -36 97.5 -36h486v140
c0 32 -4 58.833 -12 80.5s-18.667 39.334 -32 53.001c-13.3359 13.667 -28.6689 23.5 -46 29.5c-17.3359 6 -35.6689 9 -55 9h-255v81l240 241h114l-237 -241h133c43.333 0 80.166 -6.5 110.499 -19.5s55 -30.667 74 -53s32.667 -49 41 -80s12.5 -64.5 12.5 -100.5v-36
c0 -34.667 10.333 -60.667 31 -78s46 -26 76 -26h50z" />
    <glyph glyph-name="uniFB90" unicode="&#x6a9;" horiz-adv-x="649" arabic-form="initial" 
d="M506 81l-0.000976562 139.999c0 32 -4 58.833 -12 80.5s-18.667 39.334 -32 53.001s-28.666 23.5 -45.999 29.5s-35.666 9 -54.999 9h-306v81l240 241h114l-237 -241h184c43.334 0 80.167 -6.5 110.5 -19.5s55 -30.667 74 -53s32.667 -49 41 -80s12.5 -64.5 12.5 -100.5
v-221h-594c-14 0 -21 3.66699 -21 11v56c0 6.66699 2.16699 10.667 6.5 12s9.16602 2 14.499 2h506z" />
    <glyph glyph-name="uniFB91" unicode="&#x6a9;" horiz-adv-x="751" arabic-form="medial" 
d="M506 221c0 32 -4 58.832 -12 80.499s-18.667 39.334 -32 53.001s-28.666 23.5 -45.999 29.5s-35.666 9 -54.999 9h-306v81l240 241h114l-237 -241h184c43.334 0 80.167 -6.5 110.5 -19.5s55 -30.667 74 -53s32.667 -49 41 -80s12.5 -64.5 12.5 -100.5v-36
c0 -36 10.333 -62.333 31 -79s46 -25 76 -25h50c5.33301 0 10.166 -0.666992 14.499 -2s6.5 -5.33301 6.5 -12v-56c0 -7.33301 -7 -11 -21 -11h-51c-9.33887 0 -19.1719 1.5 -29.5 4.5c-10.333 3 -20.333 7.16699 -30 12.5s-18.167 11.833 -25.5 19.5s-13 16.5 -17 26.5h-4
c-1.33301 -7.33301 -4 -16.833 -8 -28.5s-10.667 -23.167 -20 -34.5h-566c-14 0 -21 3.66699 -21 11v56c0 6.66699 2.16699 10.667 6.5 12s9.16602 2 14.499 2h506v140z" />
    <glyph glyph-name="uniFB93" unicode="&#x6af;" horiz-adv-x="990" arabic-form="final" 
d="M248 474h-79l239 241h81zM990 81c5.33301 0 10.168 -0.666992 14.501 -2s6.5 -5.33301 6.5 -12v-56c0 -7.33301 -7 -11 -21 -11h-51c-9.34082 0 -19.1738 1.5 -29.5 4.5c-10.333 3 -20.333 7.16699 -30 12.5s-18.167 11.833 -25.5 19.5s-13 16.5 -17 26.5h-4
c-1.33301 -7.33301 -4 -16.833 -8 -28.5s-10.667 -23.167 -20 -34.5h-546c-28.667 0 -55.667 4 -81 12s-47.5 21.167 -66.5 39.5s-34 42.166 -45 71.499s-16.5 65.333 -16.5 108v67h78v-68c0 -51.333 11.167 -89 33.5 -113s54.833 -36 97.5 -36h486v140
c0 32 -4 58.833 -12 80.5s-18.667 39.334 -32 53.001c-13.3359 13.667 -28.6689 23.5 -46 29.5c-17.3359 6 -35.6689 9 -55 9h-255v81l240 241h114l-237 -241h133c43.333 0 80.166 -6.5 110.499 -19.5s55 -30.667 74 -53s32.667 -49 41 -80s12.5 -64.5 12.5 -100.5v-36
c0 -34.667 10.333 -60.667 31 -78s46 -26 76 -26h50z" />
    <glyph glyph-name="uniFB94" unicode="&#x6af;" horiz-adv-x="791" arabic-form="initial" 
d="M96 474h-79l239 241h81zM648 81l0.000976562 139.999c0 32 -4 58.833 -12 80.5s-18.667 39.334 -32 53.001c-13.3359 13.667 -28.6689 23.5 -46 29.5c-17.335 6 -35.668 9 -54.999 9h-306v81l240 241h114l-237 -241h184c43.333 0 80.166 -6.5 110.499 -19.5
s55 -30.667 74 -53s32.667 -49 41 -80s12.5 -64.5 12.5 -100.5v-221h-736c-14 0 -21 3.66699 -21 11v56c0 6.66699 2.16699 10.667 6.5 12s9.16602 2 14.499 2h648z" />
    <glyph glyph-name="uniFB95" unicode="&#x6af;" horiz-adv-x="895" arabic-form="medial" 
d="M650 221c0 32 -3.99707 58.832 -11.9971 80.499s-18.667 39.334 -32 53.001c-13.3359 13.667 -28.6689 23.5 -46 29.5c-17.335 6 -35.668 9 -54.999 9h-306v81l240 241h114l-237 -241h184c43.333 0 80.166 -6.5 110.499 -19.5s55 -30.667 74 -53s32.667 -49 41 -80
s12.5 -64.5 12.5 -100.5v-30c0 -36.667 10.333 -64.167 31 -82.5s46 -27.5 76 -27.5h50c5.33301 0 10.166 -0.666992 14.499 -2s6.5 -5.33301 6.5 -12v-56c0 -7.33301 -7 -11 -21 -11h-51c-9.33984 0 -19.1729 1.5 -29.5 4.5c-10.333 3 -20.333 7.16699 -30 12.5
s-18.334 11.833 -26.001 19.5s-13.5 16.5 -17.5 26.5h-3c-1.33301 -7.33301 -4 -16.833 -8 -28.5s-10.667 -23.167 -20 -34.5h-710c-14 0 -21 3.66699 -21 11v56c0 6.66699 2.16699 10.667 6.5 12s9.16602 2 14.499 2h650v140zM98.0029 473.999h-79l239 241h81z" />
    <glyph glyph-name="uniFB9F" unicode="&#x6ba;" horiz-adv-x="906" arabic-form="final" 
d="M380 -238c-55.333 0 -104.331 8.33496 -146.998 25.002s-78.667 42.5 -108 77.5s-51.666 79.667 -66.999 134s-23 119.166 -23 194.499v87h84v-87c0 -63.333 5 -117.166 15 -161.499s25.667 -80.333 47 -108s48.166 -47.834 80.499 -60.501
c32.334 -12.667 71.167 -19 116.5 -19c44.667 0 85 6 121 18s66.333 31.833 91 59.5s43.667 63.667 57 108s20 98.833 20 163.5v108h84v-106c0 -22 3.16699 -40.333 9.5 -55s15 -26.334 26 -35.001s23.833 -14.834 38.5 -18.5c14.667 -3.66699 30.667 -5.5 48 -5.5h33
c5.33301 0 10.166 -0.666992 14.499 -2s6.5 -5.33301 6.5 -12v-56c0 -7.33301 -7 -11 -21 -11h-34c-12.667 0 -25.667 2 -39 6s-26 9.5 -38 16.5s-22.333 14.833 -31 23.5s-14.334 18 -17.001 28h-3c-6.66699 -43.333 -18 -84 -34 -122s-38.5 -71 -67.5 -99
s-65 -50.167 -108 -66.5s-94.5 -24.5 -154.5 -24.5z" />
    <glyph glyph-name="uniFBA5" unicode="&#x6c0;" horiz-adv-x="592" arabic-form="final" 
d="M213 662l38 0.000976562v3c-4.66699 5.33301 -9 12.5 -13 21.5s-6 18.167 -6 27.5c0 21.333 6.33301 38.833 19 52.5s31.667 20.5 57 20.5c19.334 0 36.167 -5.83301 50.5 -17.5s21.833 -29.5 22.5 -53.5h-35c-0.668945 9.33301 -4.33594 18 -11 26
c-6.66699 8 -15.667 12 -27 12c-10 0 -18.667 -3.83301 -26 -11.5s-11 -18.834 -11 -33.501c0 -15.333 4.16699 -27 12.5 -35s18.5 -12 30.5 -12h72v-36h-173v36zM564 0.000976562c-21.335 0 -40.6699 3.16406 -58.001 9.49707c-17.333 6.33301 -32.833 14.666 -46.5 24.999
s-25.167 22.5 -34.5 36.5s-17 29 -23 45c-15.333 -21.333 -35.666 -40.166 -60.999 -56.499s-54.666 -24.5 -87.999 -24.5c-25.333 0 -50.333 4 -75 12s-46.834 20.5 -66.501 37.5s-35.667 38.833 -48 65.5s-18.5 58.667 -18.5 96c0 32 3.83301 61.833 11.5 89.5
s20 51.834 37 72.501s39 36.834 66 48.501s59.5 17.5 97.5 17.5h211v-267c0 -24.667 2.66699 -45.167 8 -61.5s12.333 -29.166 21 -38.499s18.834 -16 30.501 -20s23.834 -6 36.5 -6h28c5.33301 0 10.166 -0.666992 14.499 -2s6.5 -5.33301 6.5 -12v-56
c0 -7.33301 -7 -11 -21 -11h-28zM252.998 116.998c16 0 31.833 2.5 47.5 7.5s29.667 12.5 42 22.5s22.333 22.833 30 38.5s11.5 34.5 11.5 56.5v151h-127c-18 0 -34.667 -3.5 -50 -10.5s-28.833 -16.833 -40.5 -29.5s-20.667 -28.167 -27 -46.5s-9.5 -38.5 -9.5 -60.5
s3.5 -41.167 10.5 -57.5s16.333 -29.833 28 -40.5s24.834 -18.5 39.5 -23.5c14.667 -5 29.667 -7.5 45 -7.5z" />
    <glyph glyph-name="uniFBA7" unicode="&#x6c1;" horiz-adv-x="587" arabic-form="final" 
d="M45 241c0 25.333 3.67188 51.5 11.0049 78.5s19.166 51.5 35.499 73.5s37.666 40.167 63.999 54.5s58.5 21.5 96.5 21.5h211v-285c0 -35.333 7.5 -61.333 22.5 -78s39.5 -25 73.5 -25h28c5.33301 0 10.166 -0.666992 14.499 -2s6.5 -5.33301 6.5 -12v-56
c0 -7.33301 -7 -11 -21 -11h-28c-23.333 0 -45.833 3.5 -67.5 10.5c-21.668 7 -40.835 18 -57.501 33c-16.667 15 -30 34.167 -40 57.5s-15 51 -15 83v204h-127c-18 0 -34.667 -3.5 -50 -10.5s-28.833 -16.833 -40.5 -29.5s-20.667 -28.167 -27 -46.5
c-6.33398 -18.333 -9.50098 -38.5 -9.50098 -60.5c0 -4 -0.166992 -12.5 -0.5 -25.5s-0.5 -26.167 -0.5 -39.5v-53h-79v118z" />
    <glyph glyph-name="uniFBA8" unicode="&#x6c1;" horiz-adv-x="359" arabic-form="initial" 
d="M199 81l0.000976562 344.999h85v-426h-89v-86c0 -21.333 5 -36.666 15 -45.999s26.667 -14 50 -14h34v-66h-34c-20 0 -38 2 -54 6s-29.667 10.833 -41 20.5c-11.334 9.66699 -20.167 22.667 -26.5 39s-9.5 36.5 -9.5 60.5v86h-129c-14 0 -21 3.66699 -21 11v56
c0 6.66699 2.16699 10.667 6.5 12s9.16602 2 14.499 2h199z" />
    <glyph glyph-name="uniFBA9" unicode="&#x6c1;" horiz-adv-x="801" arabic-form="medial" 
d="M801 81c5.33301 0 10.167 -0.666992 14.5 -2s6.5 -5.33301 6.5 -12v-56c0 -7.33301 -7 -11 -21 -11h-51c-9.33398 0 -19.167 1.5 -29.5 4.5s-20.333 7.33301 -30 13s-18.167 12.5 -25.5 20.5s-13 17 -17 27h-4c-0.666992 -7.33301 -3.16699 -17 -7.5 -29
c-4.33789 -12 -11.1709 -24 -20.499 -36h-616c-14 0 -21 3.66699 -21 11v56c0 6.66699 2.16699 10.667 6.5 12s9.16602 2 14.499 2h113c-14 11.333 -25.333 26.333 -34 45s-13 42.667 -13 72c0 26 3.33301 49 10 69s16 36.833 28 50.5s26 24.5 42 32.5s33.333 13.333 52 16
c19.333 37.333 47.333 67.5 84 90.5s79 34.5 127 34.5c82.667 0 142.5 -21.833 179.5 -65.5s55.5 -105.834 55.5 -186.5v-54c0 -34 10.333 -59.833 31 -77.5s46 -26.5 76 -26.5h50zM382.001 198c0 -29.333 -4.5 -53.333 -13.5 -72s-20.5 -33.667 -34.5 -45h226v158
c0 29.333 -3.83301 54.833 -11.5 76.5s-18.334 39.5 -32.001 53.5s-29.667 24.333 -48 31s-38.166 10 -59.499 10c-24.667 0 -47.334 -5.16699 -68 -15.5c-20.667 -10.333 -37.667 -23.166 -51 -38.499c27.333 -11.333 49.5 -29.833 66.5 -55.5s25.5 -59.834 25.5 -102.501z
M224.001 87c11.333 0 22.3311 2.66797 32.998 8.00098s20.334 12.833 29.001 22.5s15.5 21.334 20.5 35.001s7.5 28.834 7.5 45.5c0 33.333 -9 59 -27 77s-39 27 -63 27s-45 -9 -63 -27s-27 -43.667 -27 -77c0 -16.667 2.5 -31.834 7.5 -45.501s11.833 -25.334 20.5 -35.001
s18.334 -17.167 29.001 -22.5s21.667 -8 33 -8z" />
    <glyph glyph-name="uniFBAB" unicode="&#x6be;" horiz-adv-x="973" arabic-form="final" 
d="M973 81c5.33301 0 10.166 -0.666992 14.499 -2s6.5 -5.33301 6.5 -12v-56c0 -7.33301 -7 -11 -21 -11h-51c-9.33984 0 -19.1729 1.5 -29.499 4.5c-10.333 3 -20.333 7.33301 -30 13s-18.334 12.5 -26.001 20.5s-13.5 17 -17.5 27h-3
c-0.666992 -7.33301 -3.16699 -17 -7.5 -29c-4.33984 -12 -11.1729 -24 -20.5 -36h-578c-28 -0 -50.167 -4.16699 -66.5 -12.5s-24.5 -25.5 -24.5 -51.5v-18h-89v24c0 50 15.333 85.667 46 107s75.334 32 134.001 32h75c-14 11.333 -25.333 26.333 -34 45s-13 42.667 -13 72
c0 26 3.33301 49 10 69s16 36.833 28 50.5s26 24.5 42 32.5s33.333 13.333 52 16c19.333 37.333 47.333 67.5 84 90.5s79 34.5 127 34.5c82.667 0 142.5 -21.833 179.5 -65.5s55.5 -105.834 55.5 -186.5v-48c0 -36.667 10.333 -64.167 31 -82.5s46 -27.5 76 -27.5h50z
M581 410c-24.667 0 -47.332 -5.16699 -67.999 -15.5s-37.667 -23.166 -51 -38.499c27.333 -11.333 49.5 -29.833 66.5 -55.5s25.5 -59.834 25.5 -102.501c0 -29.333 -4.5 -53.333 -13.5 -72s-20.5 -33.667 -34.5 -45h225l1 158c0 29.333 -3.83301 54.833 -11.5 76.5
s-18.334 39.5 -32.001 53.5s-29.667 24.333 -48 31c-18.3359 6.66699 -38.1689 10 -59.5 10zM396.002 87c11.333 0 22.3311 2.66797 32.998 8.00098s20.334 12.833 29.001 22.5s15.5 21.334 20.5 35.001s7.5 28.834 7.5 45.5c0 33.333 -9 59 -27 77s-39 27 -63 27
s-45 -9 -63 -27s-27 -43.667 -27 -77c0 -16.667 2.5 -31.834 7.5 -45.501s11.833 -25.334 20.5 -35.001s18.334 -17.167 29.001 -22.5s21.667 -8 33 -8z" />
    <glyph glyph-name="uniFBAC" unicode="&#x6be;" horiz-adv-x="699" arabic-form="initial" 
d="M66 198c0 26 3.33398 49 10.001 69s16 36.833 28 50.5s26 24.5 42 32.5s33.333 13.333 52 16c19.333 37.333 47.333 67.5 84 90.5s79 34.5 127 34.5c82.667 0 142.5 -21.833 179.5 -65.5s55.5 -105.834 55.5 -186.5v-239h-644c-14 0 -21 3.66699 -21 11v56
c0 6.66699 2.16699 10.667 6.5 12s9.16602 2 14.499 2h113c-14 11.333 -25.333 26.333 -34 45s-13 42.667 -13 72zM382.001 198c0 -29.333 -4.5 -53.333 -13.5 -72s-20.5 -33.667 -34.5 -45h226v158c0 29.333 -3.83301 54.833 -11.5 76.5s-18.334 39.5 -32.001 53.5
s-29.667 24.333 -48 31s-38.166 10 -59.499 10c-24.667 0 -47.334 -5.16699 -68 -15.5c-20.667 -10.333 -37.667 -23.166 -51 -38.499c27.333 -11.333 49.5 -29.833 66.5 -55.5s25.5 -59.834 25.5 -102.501zM224.001 87c11.333 0 22.3311 2.66797 32.998 8.00098
s20.334 12.833 29.001 22.5s15.5 21.334 20.5 35.001s7.5 28.834 7.5 45.5c0 33.333 -9 59 -27 77s-39 27 -63 27s-45 -9 -63 -27s-27 -43.667 -27 -77c0 -16.667 2.5 -31.834 7.5 -45.501s11.833 -25.334 20.5 -35.001s18.334 -17.167 29.001 -22.5s21.667 -8 33 -8z" />
    <glyph glyph-name="uniFBAD" unicode="&#x6be;" horiz-adv-x="801" arabic-form="medial" 
d="M801 81c5.33301 0 10.167 -0.666992 14.5 -2s6.5 -5.33301 6.5 -12v-56c0 -7.33301 -7 -11 -21 -11h-51c-9.33398 0 -19.167 1.5 -29.5 4.5s-20.333 7.33301 -30 13s-18.167 12.5 -25.5 20.5s-13 17 -17 27h-4c-0.666992 -7.33301 -3.16699 -17 -7.5 -29
c-4.33789 -12 -11.1709 -24 -20.499 -36h-616c-14 0 -21 3.66699 -21 11v56c0 6.66699 2.16699 10.667 6.5 12s9.16602 2 14.499 2h113c-14 11.333 -25.333 26.333 -34 45s-13 42.667 -13 72c0 26 3.33301 49 10 69s16 36.833 28 50.5s26 24.5 42 32.5s33.333 13.333 52 16
c19.333 37.333 47.333 67.5 84 90.5s79 34.5 127 34.5c82.667 0 142.5 -21.833 179.5 -65.5s55.5 -105.834 55.5 -186.5v-54c0 -34 10.333 -59.833 31 -77.5s46 -26.5 76 -26.5h50zM382.001 198c0 -29.333 -4.5 -53.333 -13.5 -72s-20.5 -33.667 -34.5 -45h226v158
c0 29.333 -3.83301 54.833 -11.5 76.5s-18.334 39.5 -32.001 53.5s-29.667 24.333 -48 31s-38.166 10 -59.499 10c-24.667 0 -47.334 -5.16699 -68 -15.5c-20.667 -10.333 -37.667 -23.166 -51 -38.499c27.333 -11.333 49.5 -29.833 66.5 -55.5s25.5 -59.834 25.5 -102.501z
M224.001 87c11.333 0 22.3311 2.66797 32.998 8.00098s20.334 12.833 29.001 22.5s15.5 21.334 20.5 35.001s7.5 28.834 7.5 45.5c0 33.333 -9 59 -27 77s-39 27 -63 27s-45 -9 -63 -27s-27 -43.667 -27 -77c0 -16.667 2.5 -31.834 7.5 -45.501s11.833 -25.334 20.5 -35.001
s18.334 -17.167 29.001 -22.5s21.667 -8 33 -8z" />
    <glyph glyph-name="uniFBAF" unicode="&#x6d2;" horiz-adv-x="886" arabic-form="final" 
d="M50 -131c0 28.667 4.16699 55.667 12.5 81s21.833 47.5 40.5 66.5s43 34 73 45s66.333 16.5 109 16.5h174v-78h-175c-51.333 -0 -89 -11.167 -113 -33.5s-36 -54.833 -36 -97.5v-66h497c42.667 0 75.167 12 97.5 36s33.5 61.667 33.5 113v69h78v-68
c0 -42.667 -5.5 -78.667 -16.5 -108s-26 -53.166 -45 -71.5c-19 -18.333 -41.167 -31.5 -66.5 -39.5s-52.333 -12 -81 -12h-582v147z" />
    <glyph glyph-name="uniFBB1" unicode="&#x6d3;" horiz-adv-x="886" arabic-form="final" 
d="M310 249h38.001v3c-4.66699 5.33301 -9 12.5 -13 21.5s-6 18.167 -6 27.5c0 21.333 6.33301 38.833 19 52.5s31.667 20.5 57 20.5c19.334 0 36.167 -5.83301 50.499 -17.5c14.333 -11.667 21.833 -29.5 22.5 -53.5h-35c-0.669922 9.33301 -4.33691 18 -11 26
c-6.66699 8 -15.667 12 -27 12c-10 0 -18.667 -3.83301 -26 -11.5c-7.33301 -7.66797 -11 -18.835 -11 -33.5c0 -15.333 4.16699 -27 12.5 -35s18.5 -12 30.5 -12h72v-36h-173v36zM50.001 -131c0 28.667 4.16699 55.667 12.5 81s21.833 47.5 40.5 66.5s43 34 73 45
s66.333 16.5 109 16.5h174v-78h-175c-51.333 -0 -89 -11.167 -113 -33.5s-36 -54.833 -36 -97.5v-66h497c42.667 0 75.167 12 97.5 36s33.5 61.667 33.5 113v69h78v-68c0 -42.667 -5.5 -78.667 -16.5 -108s-26 -53.166 -45 -71.5c-19 -18.333 -41.167 -31.5 -66.5 -39.5
s-52.333 -12 -81 -12h-582v147z" />
    <glyph glyph-name="uniFBE8" unicode="&#x649;" horiz-adv-x="349" arabic-form="initial" 
d="M199 81l0.000976562 345h85v-426h-284c-14 0 -21 3.66699 -21 11v56c0 6.66699 2.16699 10.667 6.5 12s9.16602 2 14.499 2h199z" />
    <glyph glyph-name="uniFBE9" unicode="&#x649;" horiz-adv-x="475" arabic-form="medial" 
d="M432 0c-14 0 -28.5029 2.33496 -43.5029 7.00195s-29 11 -42 19s-24.5 17.167 -34.5 27.5s-17.333 21.5 -22 33.5c-15.333 -30 -36.166 -52 -62.499 -66s-54.166 -21 -83.499 -21h-144c-14 0 -21 3.66699 -21 11v56c0 6.66699 2.16699 10.667 6.5 12s9.16602 2 14.499 2
h145c22.667 0 42.334 7.5 59.001 22.5s25 40.833 25 77.5v245h84v-210c0 -20 3.16699 -38.333 9.5 -55s14.833 -30.834 25.5 -42.501s23.334 -20.834 38.001 -27.501s30 -10 46 -10h43c5.33691 0 10.1699 -0.666992 14.5 -2c4.33301 -1.33301 6.5 -5.33301 6.5 -12v-56
c0 -7.33301 -7 -11 -21 -11h-43z" />
    <glyph glyph-name="uniFBFD" unicode="&#x6cc;" horiz-adv-x="752" arabic-form="final" 
d="M395 -278c-64 0 -118.664 9.33105 -163.997 27.998c-45.333 18.666 -82.333 44.833 -111 78.5s-49.834 74.334 -63.501 122.001s-20.834 100.5 -21.501 158.5h80c1.33301 -102.667 24.333 -179 69 -229s115.667 -75 213 -75c32 0 62.5 2.5 91.5 7.5
s54.333 12.833 76 23.5c21.6689 10.667 38.8359 24.167 51.5 40.5c12.667 16.333 19 35.5 19 57.5c0 20.667 -6 36.834 -18 48.501s-25.667 17.5 -41 17.5c-13.333 0 -29.833 2.66699 -49.5 8s-39.167 14.333 -58.5 27v77c8 -4.66699 18.333 -9 31 -13s26 -7.33301 40 -10
s27.833 -4.66699 41.5 -6s25.5 -2 35.5 -2h136c5.33301 0 10.166 -0.666992 14.499 -2s6.5 -5.33301 6.5 -12v-56c0 -7.33301 -7 -11 -21 -11h-78c8.66699 -10 15.5 -23.167 20.5 -39.5s7.5 -31.166 7.5 -44.499c0 -26 -6.83301 -50.833 -20.5 -74.5
s-33.5 -44.334 -59.5 -62.001s-58.167 -31.667 -96.5 -42s-81.833 -15.5 -130.5 -15.5z" />
    <glyph glyph-name="uniFBFE" unicode="&#x6cc;" horiz-adv-x="349" arabic-form="initial" 
d="M192 -95h85v-117h-85v117zM21 -95h85v-117h-85v117zM199 81l0.000976562 345h85v-426h-284c-14 0 -21 3.66699 -21 11v56c0 6.66699 2.16699 10.667 6.5 12s9.16602 2 14.499 2h199z" />
    <glyph glyph-name="uniFBFF" unicode="&#x6cc;" horiz-adv-x="475" arabic-form="medial" 
d="M209 -95h85v-117h-85v117zM38 -95h85v-117h-85v117zM432 0c-14 0 -28.5029 2.33496 -43.5029 7.00195s-29 11 -42 19s-24.5 17.167 -34.5 27.5s-17.333 21.5 -22 33.5c-15.333 -30 -36.166 -52 -62.499 -66s-54.166 -21 -83.499 -21h-144c-14 0 -21 3.66699 -21 11v56
c0 6.66699 2.16699 10.667 6.5 12s9.16602 2 14.499 2h145c22.667 0 42.334 7.5 59.001 22.5s25 40.833 25 77.5v245h84v-210c0 -20 3.16699 -38.333 9.5 -55s14.833 -30.834 25.5 -42.501s23.334 -20.834 38.001 -27.501s30 -10 46 -10h43
c5.33691 0 10.1699 -0.666992 14.5 -2c4.33301 -1.33301 6.5 -5.33301 6.5 -12v-56c0 -7.33301 -7 -11 -21 -11h-43z" />
    <glyph glyph-name="uniFC31" unicode="&#xfc31;" horiz-adv-x="1231" arabic-form="isolated" 
d="M395 -278c-64 0 -118.663 9.33008 -163.996 27.9971c-45.333 18.666 -82.333 44.833 -111 78.5s-49.834 74.334 -63.501 122.001s-20.834 100.5 -21.501 158.5h80c1.33301 -102.667 24.333 -179 69 -229s115.667 -75 213 -75c32 0 62.5 2.5 91.5 7.5
s54.333 12.833 76 23.5c21.6689 10.667 38.8359 24.167 51.5 40.5c12.667 16.333 19 35.5 19 57.5c0 20.667 -6 36.834 -18 48.501s-25.667 17.5 -41 17.5c-13.333 0 -29.833 2.66699 -49.5 8s-39.167 14.333 -58.5 27v77c8 -4.66699 18.333 -9 31 -13s26 -7.33301 40 -10
s27.833 -4.66699 41.5 -6s25.5 -2 35.5 -2h167v4c-5.33301 4.66699 -11.833 12.834 -19.5 24.501s-14.834 25 -21.501 40s-12.334 30.833 -17.001 47.5s-7 32.667 -7 48c0 80 20.833 141 62.5 183c41.668 42 98.835 63 171.5 63c72.667 0 129.834 -21.333 171.501 -64
s62.5 -103.334 62.5 -182c0 -78.667 -20.333 -139.167 -61 -181.5c-40.6689 -42.333 -98.3359 -63.5 -173.001 -63.5h-278c8.66699 -10 15.5 -23.167 20.5 -39.5s7.5 -31.166 7.5 -44.499c0 -26 -6.83301 -50.833 -20.5 -74.5s-33.5 -44.334 -59.5 -62.001
s-58.167 -31.667 -96.5 -42s-81.833 -15.5 -130.5 -15.5zM952.004 407.997c-43.333 0 -78.5 -14.833 -105.5 -44.5s-40.5 -69.167 -40.5 -118.5c0 -24.667 3.66699 -47.167 11 -67.5s17.5 -37.833 30.5 -52.5s28.333 -26 46 -34s37.167 -12 58.5 -12
c42.6689 0 77.6689 14 105 42c27.333 28 41 69.333 41 124s-13.5 95.5 -40.5 122.5s-62.167 40.5 -105.5 40.5zM927.004 715.997h85v-117h-85v117z" />
    <glyph glyph-name="uniFC32" unicode="&#xfc32;" horiz-adv-x="1231" arabic-form="isolated" 
d="M395 -278c-64 0 -118.663 9.33008 -163.996 27.9971c-45.333 18.666 -82.333 44.833 -111 78.5s-49.834 74.334 -63.501 122.001s-20.834 100.5 -21.501 158.5h80c1.33301 -102.667 24.333 -179 69 -229s115.667 -75 213 -75c32 0 62.5 2.5 91.5 7.5
s54.333 12.833 76 23.5c21.6689 10.667 38.8359 24.167 51.5 40.5c12.667 16.333 19 35.5 19 57.5c0 20.667 -6 36.834 -18 48.501s-25.667 17.5 -41 17.5c-13.333 0 -29.833 2.66699 -49.5 8s-39.167 14.333 -58.5 27v77c8 -4.66699 18.333 -9 31 -13s26 -7.33301 40 -10
s27.833 -4.66699 41.5 -6s25.5 -2 35.5 -2h167v4c-5.33301 4.66699 -11.833 12.834 -19.5 24.501s-14.834 25 -21.501 40s-12.334 30.833 -17.001 47.5s-7 32.667 -7 48c0 80 20.833 141 62.5 183c41.668 42 98.835 63 171.5 63c72.667 0 129.834 -21.333 171.501 -64
s62.5 -103.334 62.5 -182c0 -78.667 -20.333 -139.167 -61 -181.5c-40.6689 -42.333 -98.3359 -63.5 -173.001 -63.5h-278c8.66699 -10 15.5 -23.167 20.5 -39.5s7.5 -31.166 7.5 -44.499c0 -26 -6.83301 -50.833 -20.5 -74.5s-33.5 -44.334 -59.5 -62.001
s-58.167 -31.667 -96.5 -42s-81.833 -15.5 -130.5 -15.5zM952.004 407.997c-43.333 0 -78.5 -14.833 -105.5 -44.5s-40.5 -69.167 -40.5 -118.5c0 -24.667 3.66699 -47.167 11 -67.5s17.5 -37.833 30.5 -52.5s28.333 -26 46 -34s37.167 -12 58.5 -12
c42.6689 0 77.6689 14 105 42c27.333 28 41 69.333 41 124s-13.5 95.5 -40.5 122.5s-62.167 40.5 -105.5 40.5zM927.004 715.997h85v-117h-85v117zM441.004 -352.003h85v-117h-85v117zM270.004 -352.003h85v-117h-85v117z" />
    <glyph glyph-name="uniFC35" unicode="&#xfc35;" horiz-adv-x="1231" arabic-form="isolated" 
d="M395 -278c-64 0 -118.663 9.33008 -163.996 27.9971c-45.333 18.666 -82.333 44.833 -111 78.5s-49.834 74.334 -63.501 122.001s-20.834 100.5 -21.501 158.5h80c1.33301 -102.667 24.333 -179 69 -229s115.667 -75 213 -75c32 0 62.5 2.5 91.5 7.5
s54.333 12.833 76 23.5c21.6689 10.667 38.8359 24.167 51.5 40.5c12.667 16.333 19 35.5 19 57.5c0 20.667 -6 36.834 -18 48.501s-25.667 17.5 -41 17.5c-13.333 0 -29.833 2.66699 -49.5 8s-39.167 14.333 -58.5 27v77c8 -4.66699 18.333 -9 31 -13s26 -7.33301 40 -10
s27.833 -4.66699 41.5 -6s25.5 -2 35.5 -2h167v4c-5.33301 4.66699 -11.833 12.834 -19.5 24.501s-14.834 25 -21.501 40s-12.334 30.833 -17.001 47.5s-7 32.667 -7 48c0 80 20.833 141 62.5 183c41.668 42 98.835 63 171.5 63c72.667 0 129.834 -21.333 171.501 -64
s62.5 -103.334 62.5 -182c0 -78.667 -20.333 -139.167 -61 -181.5c-40.6689 -42.333 -98.3359 -63.5 -173.001 -63.5h-278c8.66699 -10 15.5 -23.167 20.5 -39.5s7.5 -31.166 7.5 -44.499c0 -26 -6.83301 -50.833 -20.5 -74.5s-33.5 -44.334 -59.5 -62.001
s-58.167 -31.667 -96.5 -42s-81.833 -15.5 -130.5 -15.5zM952.004 407.997c-43.333 0 -78.5 -14.833 -105.5 -44.5s-40.5 -69.167 -40.5 -118.5c0 -24.667 3.66699 -47.167 11 -67.5s17.5 -37.833 30.5 -52.5s28.333 -26 46 -34s37.167 -12 58.5 -12
c42.6689 0 77.6689 14 105 42c27.333 28 41 69.333 41 124s-13.5 95.5 -40.5 122.5s-62.167 40.5 -105.5 40.5zM1014 714.997h85v-117h-85v117zM843.004 714.997h85v-117h-85v117z" />
    <glyph glyph-name="uniFC36" unicode="&#xfc36;" horiz-adv-x="1231" arabic-form="isolated" 
d="M395 -278c-64 0 -118.663 9.33008 -163.996 27.9971c-45.333 18.666 -82.333 44.833 -111 78.5s-49.834 74.334 -63.501 122.001s-20.834 100.5 -21.501 158.5h80c1.33301 -102.667 24.333 -179 69 -229s115.667 -75 213 -75c32 0 62.5 2.5 91.5 7.5
s54.333 12.833 76 23.5c21.6689 10.667 38.8359 24.167 51.5 40.5c12.667 16.333 19 35.5 19 57.5c0 20.667 -6 36.834 -18 48.501s-25.667 17.5 -41 17.5c-13.333 0 -29.833 2.66699 -49.5 8s-39.167 14.333 -58.5 27v77c8 -4.66699 18.333 -9 31 -13s26 -7.33301 40 -10
s27.833 -4.66699 41.5 -6s25.5 -2 35.5 -2h167v4c-5.33301 4.66699 -11.833 12.834 -19.5 24.501s-14.834 25 -21.501 40s-12.334 30.833 -17.001 47.5s-7 32.667 -7 48c0 80 20.833 141 62.5 183c41.668 42 98.835 63 171.5 63c72.667 0 129.834 -21.333 171.501 -64
s62.5 -103.334 62.5 -182c0 -78.667 -20.333 -139.167 -61 -181.5c-40.6689 -42.333 -98.3359 -63.5 -173.001 -63.5h-278c8.66699 -10 15.5 -23.167 20.5 -39.5s7.5 -31.166 7.5 -44.499c0 -26 -6.83301 -50.833 -20.5 -74.5s-33.5 -44.334 -59.5 -62.001
s-58.167 -31.667 -96.5 -42s-81.833 -15.5 -130.5 -15.5zM952.004 407.997c-43.333 0 -78.5 -14.833 -105.5 -44.5s-40.5 -69.167 -40.5 -118.5c0 -24.667 3.66699 -47.167 11 -67.5s17.5 -37.833 30.5 -52.5s28.333 -26 46 -34s37.167 -12 58.5 -12
c42.6689 0 77.6689 14 105 42c27.333 28 41 69.333 41 124s-13.5 95.5 -40.5 122.5s-62.167 40.5 -105.5 40.5zM1014 714.997h85v-117h-85v117zM843.004 714.997h85v-117h-85v117zM441.004 -352.003h85v-117h-85v117zM270.004 -352.003h85v-117h-85v117z" />
    <glyph glyph-name="uniFC3D" unicode="&#xfc3d;" horiz-adv-x="1225" arabic-form="isolated" 
d="M396 -278c-64 0 -118.665 9.33008 -163.998 27.9971c-45.333 18.666 -82.333 44.833 -111 78.5s-49.834 74.334 -63.501 122.001s-20.834 100.5 -21.501 158.5h80c1.33301 -102.667 24.333 -179 69 -229s115.667 -75 213 -75c32 0 62.5 2.5 91.5 7.5
s54.333 12.833 76 23.5c21.6689 10.667 38.8359 24.167 51.5 40.5c12.667 16.333 19 35.5 19 57.5c0 20.667 -6 36.834 -18 48.501s-25.667 17.5 -41 17.5c-13.333 0 -29.833 2.66699 -49.5 8s-39.167 14.333 -58.5 27v77c8 -4.66699 18.333 -9 31 -13s26 -7.33301 40 -10
s27.833 -4.66699 41.5 -6s25.5 -2 35.5 -2h466v140c0 32 -4 58.833 -12 80.5s-18.667 39.334 -32 53.001s-28.666 23.5 -45.999 29.5c-17.3369 6 -35.6699 9 -55 9h-306v81l240 241h114l-237 -241h184c43.333 0 80.166 -6.5 110.499 -19.5s55 -30.667 74 -53
s32.667 -49 41 -80s12.5 -64.5 12.5 -100.5v-221h-496c8.66699 -10 15.5 -23.167 20.5 -39.5s7.5 -31.166 7.5 -44.499c0 -26 -6.83301 -50.833 -20.5 -74.5s-33.5 -44.334 -59.5 -62.001s-58.167 -31.667 -96.5 -42s-81.833 -15.5 -130.5 -15.5z" />
    <glyph glyph-name="uniFC3E" unicode="&#xfc3e;" horiz-adv-x="1225" arabic-form="isolated" 
d="M396 -278c-64 0 -118.665 9.33008 -163.998 27.9971c-45.333 18.666 -82.333 44.833 -111 78.5s-49.834 74.334 -63.501 122.001s-20.834 100.5 -21.501 158.5h80c1.33301 -102.667 24.333 -179 69 -229s115.667 -75 213 -75c32 0 62.5 2.5 91.5 7.5
s54.333 12.833 76 23.5c21.6689 10.667 38.8359 24.167 51.5 40.5c12.667 16.333 19 35.5 19 57.5c0 20.667 -6 36.834 -18 48.501s-25.667 17.5 -41 17.5c-13.333 0 -29.833 2.66699 -49.5 8s-39.167 14.333 -58.5 27v77c8 -4.66699 18.333 -9 31 -13s26 -7.33301 40 -10
s27.833 -4.66699 41.5 -6s25.5 -2 35.5 -2h466v140c0 32 -4 58.833 -12 80.5s-18.667 39.334 -32 53.001s-28.666 23.5 -45.999 29.5c-17.3369 6 -35.6699 9 -55 9h-306v81l240 241h114l-237 -241h184c43.333 0 80.166 -6.5 110.499 -19.5s55 -30.667 74 -53
s32.667 -49 41 -80s12.5 -64.5 12.5 -100.5v-221h-496c8.66699 -10 15.5 -23.167 20.5 -39.5s7.5 -31.166 7.5 -44.499c0 -26 -6.83301 -50.833 -20.5 -74.5s-33.5 -44.334 -59.5 -62.001s-58.167 -31.667 -96.5 -42s-81.833 -15.5 -130.5 -15.5zM425.002 -352.003h85v-117
h-85v117zM254.002 -352.003h85v-117h-85v117z" />
    <glyph glyph-name="uniFC43" unicode="&#xfc43;" horiz-adv-x="911" arabic-form="isolated" 
d="M762 81l0.00195312 633.998h84v-715h-172c8.66699 -10 15.5 -23.167 20.5 -39.5s7.5 -31.166 7.5 -44.499c0 -26 -6.83301 -50.833 -20.5 -74.5s-33.5 -44.334 -59.5 -62.001s-58.167 -31.667 -96.5 -42s-81.833 -15.5 -130.5 -15.5c-64 0 -118.667 9.33301 -164 28
c-45.333 18.666 -82.333 44.833 -111 78.5s-49.834 74.334 -63.501 122.001s-20.834 100.5 -21.501 158.5h80c1.33301 -102.667 24.333 -179 69 -229s115.667 -75 213 -75c32 0 62.5 2.5 91.5 7.5s54.333 12.833 76 23.5c21.6689 10.667 38.8359 24.167 51.5 40.5
c12.667 16.333 19 35.5 19 57.5c0 20.667 -6 36.834 -18 48.501s-25.667 17.5 -41 17.5c-13.333 0 -29.833 2.66699 -49.5 8s-39.167 14.333 -58.5 27v77c8 -4.66699 18.333 -9 31 -13s26 -7.33301 40 -10s27.833 -4.66699 41.5 -6s25.5 -2 35.5 -2h146z" />
    <glyph glyph-name="uniFC44" unicode="&#xfc44;" horiz-adv-x="911" arabic-form="isolated" 
d="M762 81l0.00195312 633.998h84v-715h-172c8.66699 -10 15.5 -23.167 20.5 -39.5s7.5 -31.166 7.5 -44.499c0 -26 -6.83301 -50.833 -20.5 -74.5s-33.5 -44.334 -59.5 -62.001s-58.167 -31.667 -96.5 -42s-81.833 -15.5 -130.5 -15.5c-64 0 -118.667 9.33301 -164 28
c-45.333 18.666 -82.333 44.833 -111 78.5s-49.834 74.334 -63.501 122.001s-20.834 100.5 -21.501 158.5h80c1.33301 -102.667 24.333 -179 69 -229s115.667 -75 213 -75c32 0 62.5 2.5 91.5 7.5s54.333 12.833 76 23.5c21.6689 10.667 38.8359 24.167 51.5 40.5
c12.667 16.333 19 35.5 19 57.5c0 20.667 -6 36.834 -18 48.501s-25.667 17.5 -41 17.5c-13.333 0 -29.833 2.66699 -49.5 8s-39.167 14.333 -58.5 27v77c8 -4.66699 18.333 -9 31 -13s26 -7.33301 40 -10s27.833 -4.66699 41.5 -6s25.5 -2 35.5 -2h146zM451.002 -352.002
h85v-117h-85v117zM280.002 -352.002h85v-117h-85v117z" />
    <glyph glyph-name="uniFC53" unicode="&#xfc53;" horiz-adv-x="1289" arabic-form="isolated" 
d="M395 -278c-64 0 -118.665 9.33105 -163.998 27.998c-45.333 18.666 -82.333 44.833 -111 78.5s-49.834 74.334 -63.501 122.001s-20.834 100.5 -21.501 158.5h80c1.33301 -102.667 24.333 -179 69 -229s115.667 -75 213 -75c32 0 62.5 2.5 91.5 7.5
s54.333 12.833 76 23.5c21.6689 10.667 38.8359 24.167 51.5 40.5c12.667 16.333 19 35.5 19 57.5c0 20.667 -6 36.834 -18 48.501s-25.667 17.5 -41 17.5c-13.333 0 -29.833 2.66699 -49.5 8s-39.167 14.333 -58.5 27v77c8 -4.66699 17.833 -8.83398 29.5 -12.5
c11.667 -3.66699 24 -6.83398 37 -9.5c13 -2.66699 26 -4.83398 39 -6.5c13 -1.66699 24.5 -2.5 34.5 -2.5h95c-14 11.333 -25.333 26.333 -34 45s-13 42.667 -13 72c0 26 3.33301 49 10 69s16 36.833 28 50.5s26 24.5 42 32.5s33.333 13.333 52 16
c19.333 37.333 47.333 67.5 84 90.5s79 34.5 127 34.5c82.667 0 142.5 -21.833 179.5 -65.5s55.5 -105.834 55.5 -186.5v-239h-560c8.66699 -10 15.5 -23.167 20.5 -39.5s7.5 -31.166 7.5 -44.499c0 -26 -6.83301 -50.833 -20.5 -74.5s-33.5 -44.334 -59.5 -62.001
s-58.167 -31.667 -96.5 -42s-81.833 -15.5 -130.5 -15.5zM972.002 197.998c0 -29.333 -4.5 -53.333 -13.5 -72s-20.5 -33.667 -34.5 -45h226v158c0 29.333 -3.83301 54.833 -11.5 76.5c-7.68359 21.667 -18.3506 39.5 -32 53.5c-13.667 14 -29.667 24.333 -48 31
s-38.166 10 -59.499 10c-24.667 0 -47.334 -5.16699 -68.001 -15.5s-37.667 -23.166 -51 -38.499c27.333 -11.333 49.5 -29.833 66.5 -55.5s25.5 -59.834 25.5 -102.501zM814.002 86.998c11.333 0 22.332 2.66797 32.999 8.00098c10.6729 5.33301 20.3398 12.833 29 22.5
c8.66699 9.66699 15.5 21.334 20.5 35.001s7.5 28.834 7.5 45.5c0 33.333 -9 59 -27 77s-39 27 -63 27s-45 -9 -63 -27s-27 -43.667 -27 -77c0 -16.667 2.5 -31.834 7.5 -45.501s11.833 -25.334 20.5 -35.001c8.67285 -9.66699 18.3398 -17.167 29.001 -22.5
c10.667 -5.33301 21.667 -8 33 -8z" />
    <glyph glyph-name="uniFC54" unicode="&#xfc54;" horiz-adv-x="1289" arabic-form="isolated" 
d="M395 -278c-64 0 -118.665 9.33105 -163.998 27.998c-45.333 18.666 -82.333 44.833 -111 78.5s-49.834 74.334 -63.501 122.001s-20.834 100.5 -21.501 158.5h80c1.33301 -102.667 24.333 -179 69 -229s115.667 -75 213 -75c32 0 62.5 2.5 91.5 7.5
s54.333 12.833 76 23.5c21.6689 10.667 38.8359 24.167 51.5 40.5c12.667 16.333 19 35.5 19 57.5c0 20.667 -6 36.834 -18 48.501s-25.667 17.5 -41 17.5c-13.333 0 -29.833 2.66699 -49.5 8s-39.167 14.333 -58.5 27v77c8 -4.66699 17.833 -8.83398 29.5 -12.5
c11.667 -3.66699 24 -6.83398 37 -9.5c13 -2.66699 26 -4.83398 39 -6.5c13 -1.66699 24.5 -2.5 34.5 -2.5h95c-14 11.333 -25.333 26.333 -34 45s-13 42.667 -13 72c0 26 3.33301 49 10 69s16 36.833 28 50.5s26 24.5 42 32.5s33.333 13.333 52 16
c19.333 37.333 47.333 67.5 84 90.5s79 34.5 127 34.5c82.667 0 142.5 -21.833 179.5 -65.5s55.5 -105.834 55.5 -186.5v-239h-560c8.66699 -10 15.5 -23.167 20.5 -39.5s7.5 -31.166 7.5 -44.499c0 -26 -6.83301 -50.833 -20.5 -74.5s-33.5 -44.334 -59.5 -62.001
s-58.167 -31.667 -96.5 -42s-81.833 -15.5 -130.5 -15.5zM972.002 197.998c0 -29.333 -4.5 -53.333 -13.5 -72s-20.5 -33.667 -34.5 -45h226v158c0 29.333 -3.83301 54.833 -11.5 76.5c-7.68359 21.667 -18.3506 39.5 -32 53.5c-13.667 14 -29.667 24.333 -48 31
s-38.166 10 -59.499 10c-24.667 0 -47.334 -5.16699 -68.001 -15.5s-37.667 -23.166 -51 -38.499c27.333 -11.333 49.5 -29.833 66.5 -55.5s25.5 -59.834 25.5 -102.501zM814.002 86.998c11.333 0 22.332 2.66797 32.999 8.00098c10.6729 5.33301 20.3398 12.833 29 22.5
c8.66699 9.66699 15.5 21.334 20.5 35.001s7.5 28.834 7.5 45.5c0 33.333 -9 59 -27 77s-39 27 -63 27s-45 -9 -63 -27s-27 -43.667 -27 -77c0 -16.667 2.5 -31.834 7.5 -45.501s11.833 -25.334 20.5 -35.001c8.67285 -9.66699 18.3398 -17.167 29.001 -22.5
c10.667 -5.33301 21.667 -8 33 -8zM409.001 -352.001h85v-117h-85v117zM238.001 -352.001h85v-117h-85v117z" />
    <glyph glyph-name="uni064C0651" unicode="&#xfc5e;" arabic-form="isolated" 
d="M-46 900c12.667 0 24.667 3.50195 36 10.502s21 15.5 29 25.5c-4 1.33301 -9.16699 3.33301 -15.5 6s-12.333 6.5 -18 11.5s-10.5 10.833 -14.5 17.5s-6 14 -6 22c0 17.333 4.66699 30.166 14 38.499s21 12.5 35 12.5s26 -4.5 36 -13.5s15 -23.5 15 -43.5
c0 -13.333 -3.16699 -26.333 -9.5 -39s-14.833 -24.334 -25.5 -35.001s-22.5 -19.167 -35.5 -25.5s-26.5 -9.5 -40.5 -9.5s-26 5.33301 -36 16c-10 10.668 -15 25.335 -15 44h-17v22h17c6.66699 0 12 -1.5 16 -4.5s6 -8.83301 6 -17.5c0 -9.33301 2 -18 6 -26
s11.667 -12 23 -12zM-11 991.002c0 -9.34082 4.33301 -17.1738 13 -23.5c8.66699 -6.33301 18.667 -10.5 30 -12.5c6 12 9 23 9 33c0 10.6738 -2.5 18.8408 -7.5 24.5c-5 5.66699 -11.5 8.5 -19.5 8.5c-6 0 -11.667 -2.66699 -17 -8c-5.33301 -5.34082 -8 -12.6738 -8 -22z
M-61 735.002c-11.333 0 -20.998 2.83398 -28.998 8.50098c-8 5.67285 -14.667 17.8398 -20 36.501l-10 40l34 10l9 -32c2.66699 -9.33984 6.16699 -16.6729 10.5 -22c4.33301 -5.33301 9.5 -8 15.5 -8c8 0 14.833 2.66699 20.5 8s8.5 12 8.5 20v3
c0 1.33301 -0.333008 3.5 -1 6.5s-1.83398 7.5 -3.50098 13.5s-3.83398 14 -6.50098 24l33 10l8 -32c2.66699 -9.33301 6.83398 -16.333 12.501 -21s11.167 -7 16.5 -7c8.66699 0 15.167 2.5 19.5 7.5s6.5 11.167 6.5 18.5v3c0 1.33301 -0.333008 3.66602 -1 6.99902
s-1.83398 8 -3.50098 14s-3.83398 14.333 -6.50098 25l34 9c3.33301 -13.3398 6 -23.6729 8 -31c2 -7.33984 3.5 -13.1729 4.5 -17.5c1 -4.33301 1.66699 -7.5 2 -9.5s0.5 -4 0.5 -6c0 -15.3359 -5.66699 -27.6689 -17 -36.999c-11.333 -9.33301 -25.333 -14 -42 -14
c-8 0 -15.833 2.16699 -23.5 6.5s-14.167 11.166 -19.5 20.499c0 -16.667 -5.66699 -29.834 -17 -39.501s-25.666 -14.5 -42.999 -14.5z" />
    <glyph glyph-name="uni064D0651" unicode="&#xfc5f;" arabic-form="isolated" 
d="M-68 924c-11.333 0 -20.998 2.83301 -28.998 8.5c-8 5.66895 -14.667 17.8359 -20 36.501l-10 40l34 10l9 -32c2.66699 -9.34863 6.16699 -16.6816 10.5 -22c4.33301 -5.33301 9.5 -8 15.5 -8c8 0 14.833 2.66699 20.5 8s8.5 12 8.5 20v3c0 1.33301 -0.333008 3.5 -1 6.5
s-1.83398 7.5 -3.50098 13.5s-3.83398 14 -6.50098 24l33 10l8 -32c2.66699 -9.33301 6.83398 -16.333 12.501 -21s11.167 -7 16.5 -7c8.66699 0 15.167 2.5 19.5 7.5s6.5 11.167 6.5 18.5v3c0 1.33301 -0.333008 3.66602 -1 6.99902s-1.83398 8 -3.50098 14
s-3.83398 14.333 -6.50098 25l34 9c3.33301 -13.333 6 -23.666 8 -30.999s3.5 -13.166 4.5 -17.499s1.66699 -7.5 2 -9.5s0.5 -4 0.5 -6c0 -15.3408 -5.66699 -27.6738 -17 -37c-11.333 -9.33301 -25.333 -14 -42 -14c-8 0 -15.833 2.16699 -23.5 6.5
s-14.167 11.166 -19.5 20.499c0 -16.667 -5.66699 -29.834 -17 -39.501s-25.666 -14.5 -42.999 -14.5zM-91.998 823l-9 37l201 54l10 -37zM-72.998 748l-9 37l201 54l10 -37z" />
    <glyph glyph-name="uni064E0651" unicode="&#xfc60;" arabic-form="isolated" 
d="M-48 739c-11.333 0 -21 2.83398 -29 8.50098c-8 5.66992 -14.667 17.8369 -20 36.501l-10 40l34 10l9 -32c2.66699 -9.33887 6.16699 -16.6719 10.5 -21.999c4.33301 -5.33301 9.5 -8 15.5 -8c8 0 14.833 2.66699 20.5 8s8.5 12 8.5 20v3c0 1.33301 -0.333008 3.5 -1 6.5
s-1.83398 7.5 -3.50098 13.5s-3.83398 14 -6.50098 24l33 10l8 -32c2.66699 -9.33301 6.83398 -16.333 12.501 -21s11.167 -7 16.5 -7c8.66699 0 15.167 2.5 19.5 7.5s6.5 11.167 6.5 18.5v3c0 1.33301 -0.333008 3.66602 -1 6.99902s-1.83398 8 -3.5 14
c-1.66699 6 -3.83398 14.333 -6.5 25l34 9c3.33301 -13.3398 6 -23.6729 8 -31c2 -7.33691 3.5 -13.1699 4.5 -17.5c1 -4.33301 1.66699 -7.5 2 -9.5s0.5 -4 0.5 -6c0 -15.3398 -5.66699 -27.6729 -17 -37c-11.333 -9.33301 -25.333 -14 -42 -14
c-8 0 -15.833 2.16699 -23.5 6.5s-14.167 11.166 -19.5 20.499c0 -16.667 -5.66699 -29.834 -17 -39.501s-25.666 -14.5 -42.999 -14.5zM-108 878.001l-9 37l201 54l10 -37z" />
    <glyph glyph-name="uni064F0651" unicode="&#xfc61;" arabic-form="isolated" 
d="M-69 686c-11.333 0 -20.998 2.83496 -28.998 8.50195c-8 5.67188 -14.667 17.8389 -20 36.5l-10 40l34 10l9 -32c2.66699 -9.33398 6.16699 -16.667 10.5 -22s9.5 -8 15.5 -8c8 0 14.833 2.66699 20.5 8s8.5 12 8.5 20v3c0 1.33301 -0.333008 3.5 -1 6.5
s-1.83398 7.5 -3.50098 13.5s-3.83398 14 -6.50098 24l33 10l8 -32c2.66699 -9.33301 6.83398 -16.333 12.501 -21s11.167 -7 16.5 -7c8.66699 0 15.167 2.5 19.5 7.5s6.5 11.167 6.5 18.5v3c0 1.33301 -0.333008 3.66602 -1 6.99902s-1.83398 8 -3.50098 14
s-3.83398 14.333 -6.50098 25l34 9c3.33301 -13.3398 6 -23.6729 8 -31c2 -7.3457 3.5 -13.1787 4.5 -17.5c1 -4.33301 1.66699 -7.5 2 -9.5s0.5 -4 0.5 -6c0 -15.3359 -5.66699 -27.6689 -17 -36.999c-11.333 -9.33301 -25.333 -14 -42 -14c-8 0 -15.833 2.16699 -23.5 6.5
s-14.167 11.166 -19.5 20.499c0 -16.667 -5.66699 -29.834 -17 -39.501s-25.666 -14.5 -42.999 -14.5zM-66.998 856.002c15.333 0 30.001 4.16797 44.001 12.501s26 18.833 36 31.5c-5.33301 1.33301 -11.833 3.83301 -19.5 7.5s-15 8.5 -22 14.5s-13 13.167 -18 21.5
s-7.5 17.5 -7.5 27.5c0 21.333 5.83301 37.166 17.5 47.499s26.167 15.5 43.5 15.5s32.166 -5.66699 44.499 -17s18.5 -29.333 18.5 -54c0 -16 -4 -32 -12 -48s-18.5 -30.5 -31.5 -43.5s-27.667 -23.5 -44 -31.5s-32.833 -12 -49.5 -12v28zM-23.9971 968.003
c0 -11.333 5.33203 -21 15.999 -29s23 -13 37 -15c7.33301 14.6699 11 28.3369 11 41c0 12.667 -3.16699 22.5 -9.5 29.5s-14.166 10.5 -23.499 10.5c-8 0 -15.167 -3.33301 -21.5 -10s-9.5 -15.667 -9.5 -27z" />
    <glyph glyph-name="uni06500651" unicode="&#xfc62;" arabic-form="isolated" 
d="M-61 856c-11.333 0 -20.998 2.83496 -28.998 8.50195c-8 5.67285 -14.667 17.8398 -20 36.5l-10 40l34 10l9 -32c2.66699 -9.34668 6.16699 -16.6797 10.5 -21.999c4.33301 -5.33301 9.5 -8 15.5 -8c8 0 14.833 2.66699 20.5 8s8.5 12 8.5 20v3
c0 1.33301 -0.333008 3.5 -1 6.5s-1.83398 7.5 -3.50098 13.5s-3.83398 14 -6.50098 24l33 10l8 -32c2.66699 -9.33301 6.83398 -16.333 12.501 -21s11.167 -7 16.5 -7c8.66699 0 15.167 2.5 19.5 7.5s6.5 11.167 6.5 18.5v3c0 1.33301 -0.333008 3.66602 -1 6.99902
s-1.83398 8 -3.50098 14s-3.83398 14.333 -6.50098 25l34 9c3.33301 -13.3408 6 -23.6738 8 -31c2 -7.34082 3.5 -13.1738 4.5 -17.5c1 -4.33301 1.66699 -7.5 2 -9.5s0.5 -4 0.5 -6c0 -15.335 -5.66699 -27.668 -17 -37c-11.333 -9.33301 -25.333 -14 -42 -14
c-8 0 -15.833 2.16699 -23.5 6.5s-14.167 11.166 -19.5 20.499c0 -16.667 -5.66699 -29.834 -17 -39.501s-25.666 -14.5 -42.999 -14.5zM-86.998 744.002l-9 37l201 54l10 -37z" />
    </font>
</defs>
</svg>
