<?xml version="1.0" standalone="no"?>
<!DOCTYPE svg PUBLIC "-//W3C//DTD SVG 1.1//EN" "http://www.w3.org/Graphics/SVG/1.1/DTD/svg11.dtd" >
<svg xmlns="http://www.w3.org/2000/svg" xmlns:xlink="http://www.w3.org/1999/xlink" version="1.1">
<metadata>
Created by FontForge 20161116 at Thu Oct 16 12:50:39 2014
 By Jimmy Warting
Copyright (c) 2014 by Abjad / Ali Almasri. All rights reserved.
</metadata>
<defs>
<font id="Swissra-Light" horiz-adv-x="0" >
  <font-face 
    font-family="Swissra-Light"
    font-weight="400"
    font-stretch="normal"
    units-per-em="1000"
    panose-1="1 0 0 0 0 0 0 0 0 0"
    ascent="666"
    descent="-334"
    bbox="-267.999 -547.001 1555 1090"
    underline-thickness="24"
    underline-position="-37"
    unicode-range="U+000D-FEFC"
  />
<missing-glyph horiz-adv-x="499" 
d="M499 699v-699h-499v699h499zM450 48v601h-402v-601h402zM219 228c0 2 -0.334961 4.50293 -1.00195 7.50293s-1 5.83301 -1 8.5c0 6 0.166992 12.5 0.5 19.5s1 14 2 21s2.33301 13.833 4 20.5s3.5 12.667 5.5 18c6 12 14.333 23.5 25 34.5s21 22 31 33
s18.833 22.167 26.5 33.5c7.66699 11.334 11.5 23.667 11.5 36.999c0 10.667 -1.83301 21 -5.5 31s-8.66699 18.833 -15 26.5c-6.33301 7.6748 -14 13.8418 -23 18.5c-9 4.66699 -19.167 7 -30.5 7c-13.334 0 -24.667 -2.5 -34 -7.5c-9.33398 -5 -17.167 -12 -23.5 -21
s-11.333 -19 -15 -30s-6.16699 -22.167 -7.5 -33.5l-48 7c2 19.334 6 37.167 12 53.499c6 16.333 14.333 30.5 25 42.5s23.834 21.333 39.501 28s33.834 10 54.5 10c18.667 0 35.334 -3.33301 50.001 -10s27.167 -15.667 37.5 -27s18.5 -24.833 24.5 -40.5s9 -32.5 9 -50.5
c0 -16 -2.16699 -30 -6.5 -42s-9.83301 -22.833 -16.5 -32.5c-6.66699 -9.66797 -14.167 -18.335 -22.5 -26c-8.33301 -7.66699 -16.333 -15 -24 -22s-14.5 -14 -20.5 -21s-10.333 -14.833 -13 -23.5c-1.33301 -4 -2.5 -9.16699 -3.5 -15.5s-1.66699 -12.833 -2 -19.5
s-0.5 -13.334 -0.5 -20.001v-15h-45zM215.998 114.003v65h55v-65h-55z" />
    <glyph glyph-name="uniFEF5" unicode="&#xfedf;&#xfe82;" horiz-adv-x="634" arabic-form="isolated" 
d="M499 56v659h60v-715h-534v56h143v474h60v-474h271zM143 704c10.667 0 21.167 -1.5 31.5 -4.5s20.5 -6.16699 30.5 -9.5s20.167 -6.5 30.5 -9.5s20.5 -4.5 30.5 -4.5c28 0 42 10.333 42 31h32c0 -24 -6.66699 -42.833 -20 -56.5s-29.666 -20.5 -48.999 -20.5
c-10.667 0 -21.167 1.5 -31.5 4.5s-20.5 6.33301 -30.5 10s-20 7 -30 10s-20.333 4.5 -31 4.5c-28 0 -42 -10.667 -42 -32h-32c0 24 6.66699 42.833 20 56.5s29.666 20.5 48.999 20.5z" />
    <glyph glyph-name="uniFEF6" unicode="&#xfee0;&#xfe82;" horiz-adv-x="724" arabic-form="final" 
d="M395 0l-369.997 -0.000976562v56h142v474h60v-474h169c30 0 53.667 9.83301 71 29.5s26 51.5 26 95.5v534h59v-505c0 -20 3.16699 -39.167 9.5 -57.5s15.166 -34.666 26.499 -48.999s25.166 -25.833 41.499 -34.5s34.166 -13 53.499 -13h41
c5.33301 0 9.33301 -0.666992 12 -2s4 -5.33301 4 -12v-31c0 -3.33301 -0.833008 -6 -2.5 -8s-6.16699 -3 -13.5 -3h-41c-16.667 0 -33 2.16699 -49 6.5s-30.667 10.5 -44 18.5s-24.833 17.5 -34.5 28.5s-16.5 23.167 -20.5 36.5c-13.334 -34 -32.501 -57.5 -57.5 -70.5
c-25 -13 -52.5 -19.5 -82.5 -19.5zM146.003 709.999c10.667 0 21.167 -1.5 31.5 -4.5s20.5 -6.16699 30.5 -9.5s20.167 -6.5 30.5 -9.5s20.5 -4.5 30.5 -4.5c28 0 42 10.333 42 31h32c0 -24 -6.66699 -42.833 -20 -56.5s-29.666 -20.5 -48.999 -20.5
c-10.667 0 -21.167 1.5 -31.5 4.5s-20.5 6.33301 -30.5 10s-20 7 -30 10s-20.333 4.5 -31 4.5c-28 0 -42 -10.667 -42 -32h-32c0 24 6.66699 42.833 20 56.5s29.666 20.5 48.999 20.5z" />
    <glyph glyph-name="uniFEF7" unicode="&#xfedf;&#xfe84;" horiz-adv-x="634" arabic-form="isolated" 
d="M499 56v659h60v-715h-534v56h143v474h60v-474h271zM115 692l40.002 -0.000976562v4c-4.66699 6 -9.33398 13.833 -14.001 23.5s-7 20.834 -7 33.5c0 19.333 6.16699 36.333 18.5 51s29.833 22 52.5 22c18 0 33.833 -5.83301 47.5 -17.5s20.834 -29.5 21.501 -53.5h-27
c0 13.333 -3.83301 24 -11.5 32s-17.834 12 -30.501 12s-22.834 -4.16699 -30.501 -12.5c-7.66699 -8.33887 -11.5 -21.1719 -11.5 -38.499c0 -17.333 5 -31 15 -41s21 -15 33 -15h68v-27h-164v27z" />
    <glyph glyph-name="uniFEF8" unicode="&#xfee0;&#xfe84;" horiz-adv-x="724" arabic-form="final" 
d="M395 0l-369.997 -0.000976562v56h142v474h60v-474h169c30 0 53.667 9.83301 71 29.5s26 51.5 26 95.5v534h59v-505c0 -20 3.16699 -39.167 9.5 -57.5s15.166 -34.666 26.499 -48.999s25.166 -25.833 41.499 -34.5s34.166 -13 53.499 -13h41
c5.33301 0 9.33301 -0.666992 12 -2s4 -5.33301 4 -12v-31c0 -3.33301 -0.833008 -6 -2.5 -8s-6.16699 -3 -13.5 -3h-41c-16.667 0 -33 2.16699 -49 6.5s-30.667 10.5 -44 18.5s-24.833 17.5 -34.5 28.5s-16.5 23.167 -20.5 36.5c-13.334 -34 -32.501 -57.5 -57.5 -70.5
c-25 -13 -52.5 -19.5 -82.5 -19.5zM119.003 704.999l40.002 -0.000976562v4c-4.66699 6 -9.33398 13.833 -14.001 23.5c-4.66699 9.67285 -7 20.8398 -7 33.501c0 19.333 6.16699 36.333 18.5 51s29.833 22 52.5 22c18 0 33.833 -5.83301 47.5 -17.5
s20.834 -29.5 21.501 -53.5h-27c0 13.333 -3.83301 24 -11.5 32s-17.834 12 -30.501 12s-22.834 -4.16699 -30.501 -12.5c-7.66699 -8.33496 -11.5 -21.168 -11.5 -38.5c0 -17.333 5 -31 15 -41s21 -15 33 -15h68v-27h-164v27z" />
    <glyph glyph-name="uniFEF9" unicode="&#xfedf;&#xfe88;" horiz-adv-x="634" arabic-form="isolated" 
d="M499 56v659h60v-715h-534v56h143v474h60v-474h271zM110 -236l40.002 -0.000976562v4c-4.66699 6 -9.33398 13.833 -14.001 23.5s-7 20.834 -7 33.501c0 19.333 6.16699 36.333 18.5 51s29.833 22 52.5 22c18 0 33.833 -5.83301 47.5 -17.5s20.834 -29.5 21.501 -53.5h-27
c0 13.333 -3.83301 24 -11.5 32s-17.834 12 -30.501 12s-22.834 -4.16699 -30.501 -12.5s-11.5 -21.166 -11.5 -38.5c0 -17.333 5 -31 15 -41s21 -15 33 -15h68v-27h-164v27z" />
    <glyph glyph-name="uniFEFA" unicode="&#xfee0;&#xfe88;" horiz-adv-x="724" arabic-form="final" 
d="M395 0l-369.997 -0.000976562v56h142v474h60v-474h169c30 0 53.667 9.83301 71 29.5s26 51.5 26 95.5v534h59v-505c0 -20 3.16699 -39.167 9.5 -57.5s15.166 -34.666 26.499 -48.999s25.166 -25.833 41.499 -34.5s34.166 -13 53.499 -13h41
c5.33301 0 9.33301 -0.666992 12 -2s4 -5.33301 4 -12v-31c0 -3.33301 -0.833008 -6 -2.5 -8s-6.16699 -3 -13.5 -3h-41c-16.667 0 -33 2.16699 -49 6.5s-30.667 10.5 -44 18.5s-24.833 17.5 -34.5 28.5s-16.5 23.167 -20.5 36.5c-13.334 -34 -32.501 -57.5 -57.5 -70.5
c-25 -13 -52.5 -19.5 -82.5 -19.5zM106.003 -222.001l40.002 -0.000976562v4c-4.66699 6 -9.33398 13.833 -14.001 23.5c-4.66699 9.66602 -7 20.833 -7 33.5c0 19.333 6.16699 36.333 18.5 51s29.833 22 52.5 22c18 0 33.833 -5.83301 47.5 -17.5
s20.834 -29.5 21.501 -53.5h-27c0 13.333 -3.83301 24 -11.5 32s-17.834 12 -30.501 12s-22.834 -4.16699 -30.501 -12.5s-11.5 -21.166 -11.5 -38.499s5 -31 15 -41s21 -15 33 -15h68v-27h-164v27z" />
    <glyph glyph-name="uniFEFB" unicode="&#xfedf;&#xfe8e;" horiz-adv-x="634" arabic-form="isolated" 
d="M499 56v659h60v-715h-534v56h143v474h60v-474h271z" />
    <glyph glyph-name="uniFEFC" unicode="&#xfee0;&#xfe8e;" horiz-adv-x="724" arabic-form="final" 
d="M395 0l-369.997 -0.000976562v56h142v474h60v-474h169c30 0 53.667 9.83301 71 29.5s26 51.5 26 95.5v534h59v-505c0 -20 3.16699 -39.167 9.5 -57.5s15.166 -34.666 26.499 -48.999s25.166 -25.833 41.499 -34.5s34.166 -13 53.499 -13h41
c5.33301 0 9.33301 -0.666992 12 -2s4 -5.33301 4 -12v-31c0 -3.33301 -0.833008 -6 -2.5 -8s-6.16699 -3 -13.5 -3h-41c-16.667 0 -33 2.16699 -49 6.5s-30.667 10.5 -44 18.5s-24.833 17.5 -34.5 28.5s-16.5 23.167 -20.5 36.5c-13.334 -34 -32.501 -57.5 -57.5 -70.5
c-25 -13 -52.5 -19.5 -82.5 -19.5z" />
    <glyph glyph-name="uni06440671" unicode="&#xfedf;&#xfb51;" horiz-adv-x="634" 
d="M238 721c21.333 0 37 -7.16699 47 -21.5c10 -14.3359 15 -32.1689 15 -53.5v-52h-201v29h29c4.66699 12 11.167 23.833 19.5 35.5s17.333 22.167 27 31.5s20 16.833 31 22.5s21.833 8.5 32.5 8.5zM269 623v23c0 14 -3.66699 24.5 -11 31.5s-16.333 10.5 -27 10.5
c-8 0 -15.5 -2 -22.5 -6s-13.5 -9.16699 -19.5 -15.5s-11.5 -13.333 -16.5 -21s-9.16699 -15.167 -12.5 -22.5h109zM499 56v659h60v-715h-534v56h143v474h60v-474h271z" />
    <glyph glyph-name="uni06440671.fina" unicode="&#xfee0;&#xfb51;" horiz-adv-x="724" 
d="M238 721c21.333 0 37 -7.16699 47 -21.5c10 -14.3359 15 -32.1689 15 -53.5v-52h-201v29h29c4.66699 12 11.167 23.833 19.5 35.5s17.333 22.167 27 31.5s20 16.833 31 22.5s21.833 8.5 32.5 8.5zM269 623v23c0 14 -3.66699 24.5 -11 31.5s-16.333 10.5 -27 10.5
c-8 0 -15.5 -2 -22.5 -6s-13.5 -9.16699 -19.5 -15.5s-11.5 -13.333 -16.5 -21s-9.16699 -15.167 -12.5 -22.5h109zM395 0l-369.997 -0.000976562v56h142v474h60v-474h169c30 0 53.667 9.83301 71 29.5s26 51.5 26 95.5v534h59v-505c0 -20 3.16699 -39.167 9.5 -57.5
s15.166 -34.666 26.499 -48.999s25.166 -25.833 41.499 -34.5s34.166 -13 53.499 -13h41c5.33301 0 9.33301 -0.666992 12 -2s4 -5.33301 4 -12v-31c0 -3.33301 -0.833008 -6 -2.5 -8s-6.16699 -3 -13.5 -3h-41c-16.667 0 -33 2.16699 -49 6.5s-30.667 10.5 -44 18.5
s-24.833 17.5 -34.5 28.5s-16.5 23.167 -20.5 36.5c-13.334 -34 -32.501 -57.5 -57.5 -70.5c-25 -13 -52.5 -19.5 -82.5 -19.5z" />
    <glyph glyph-name="uni0621" unicode="&#x621;" horiz-adv-x="523" arabic-form="isolated" 
d="M35 0v55.999h126v7c-7.33398 6 -15.167 15.167 -23.5 27.5s-15.833 26.333 -22.5 42s-12.167 32 -16.5 49s-6.5 33.5 -6.5 49.5c0 28.667 5 55.167 15 79.5s23.5 45.333 40.5 63s36.833 31.334 59.5 41.001s46.667 14.5 72 14.5s48.5 -4.66699 69.5 -14
s39.333 -22.5 55 -39.5s28.167 -37 37.5 -60c9.33691 -23 14.6699 -48.5 16 -76.5h-53c-0.666992 17.333 -4 33.833 -10 49.5s-14.5 29.5 -25.5 41.5s-24 21.5 -39 28.5s-31.833 10.5 -50.5 10.5c-37.333 0 -67.333 -12 -90 -36s-34 -58 -34 -102
c0 -19.333 3.5 -39.333 10.5 -60s16.5 -39.5 28.5 -56.5s26 -31 42 -42s32.667 -16.5 50 -16.5h182v-56h-433z" />
    <glyph glyph-name="uni0622" unicode="&#x622;" horiz-adv-x="210" arabic-form="isolated" 
d="M42 887c10.667 0 21.168 -1.5 31.501 -4.5s20.5 -6.16699 30.5 -9.5s20.167 -6.5 30.5 -9.5s20.5 -4.5 30.5 -4.5c28 0 42 10.333 42 31h32c0 -24 -6.66699 -42.833 -20 -56.5c-13.334 -13.667 -29.667 -20.5 -49 -20.5c-10.667 0 -21.167 1.5 -31.5 4.5
s-20.5 6.33301 -30.5 10s-20 7 -30 10s-20.333 4.5 -31 4.5c-28 0 -42 -10.667 -42 -32h-32c0 24 6.66699 42.833 20 56.5s29.666 20.5 48.999 20.5zM75.001 0v715h60v-715h-60z" />
    <glyph glyph-name="uni0623" unicode="&#x623;" horiz-adv-x="210" arabic-form="isolated" 
d="M28 811l40.0029 -0.000976562v4c-4.66699 6 -9.33398 13.833 -14.001 23.5c-4.66699 9.67285 -7 20.8398 -7 33.5c0 19.333 6.16699 36.333 18.5 51s29.833 22 52.5 22c18 0 33.833 -5.83301 47.5 -17.5s20.834 -29.5 21.5 -53.5h-27c0 13.333 -3.83301 24 -11.5 32
s-17.834 12 -30.501 12s-22.834 -4.16699 -30.501 -12.5c-7.66699 -8.33984 -11.5 -21.1729 -11.5 -38.499c0 -17.333 5 -31 15 -41s21 -15 33 -15h68v-27h-164v27zM75.0029 -0.000976562v715h60v-715h-60z" />
    <glyph glyph-name="uni0624" unicode="&#x624;" horiz-adv-x="535" arabic-form="isolated" 
d="M56 662l40.002 -0.000976562v4c-4.66699 6 -9.33398 13.833 -14 23.5c-4.66699 9.66699 -7 20.834 -7 33.5c0 19.333 6.16699 36.333 18.5 51s29.833 22 52.5 22c18 0 33.833 -5.83301 47.5 -17.5s20.834 -29.5 21.5 -53.5h-27c0 13.333 -3.83301 24 -11.5 32
s-17.834 12 -30.501 12s-22.834 -4.16699 -30.501 -12.5c-7.66699 -8.33594 -11.5 -21.1689 -11.5 -38.499c0 -17.333 5 -31 15 -41s21 -15 33 -15h68v-27h-164v27zM211.002 -238.001c-14 0 -26.333 0.667969 -37 2.00098s-19.667 3 -27 5
c-8.66699 2.66504 -16.334 5.33203 -23.001 8v61c9.33301 -4.66699 20.5 -8.5 33.5 -11.5s25.833 -4.5 38.5 -4.5c30.667 0 57.667 2.66699 81 8s43.333 14.833 60 28.5s30.167 31.834 40.5 54.501s18.5 51.667 24.5 87h-131c-35.333 0 -66 6 -92 18s-47.667 28.5 -65 49.5
s-30.333 45.667 -39 74s-13 59.166 -13 92.499s3.16699 65.5 9.5 96.5s17.333 58.333 33 82s37 42.667 64 57s61.167 21.5 102.5 21.5s75.5 -6.66699 102.5 -20s48.333 -32.833 64 -58.5s26.667 -57 33 -94s9.5 -79.167 9.5 -126.5c0 -81.333 -5 -149.333 -15 -204
s-25.667 -98.834 -47 -132.501s-49.166 -57.667 -83.499 -72s-75.5 -21.5 -123.5 -21.5zM128.002 234c0 -58 11.167 -102.168 33.5 -132.501s58.833 -45.5 109.5 -45.5h138c1.33301 20 2.5 41.667 3.5 65s1.5 48.666 1.5 75.999c0 78.667 -10.667 137.334 -32 176.001
s-58 58 -110 58c-26 0 -48.167 -4.83301 -66.5 -14.5c-18.334 -9.66699 -33.167 -23.167 -44.5 -40.5c-11.334 -17.333 -19.667 -38.166 -25 -62.499s-8 -50.833 -8 -79.5z" />
    <glyph glyph-name="uni0625" unicode="&#x625;" horiz-adv-x="210" arabic-form="isolated" 
d="M36 -222l40.0029 -0.000976562v4c-4.66699 6 -9.33398 13.833 -14.001 23.5c-4.66699 9.66602 -7 20.833 -7 33.5c0 19.333 6.16699 36.333 18.5 51s29.833 22 52.5 22c18 0 33.833 -5.83301 47.5 -17.5s20.834 -29.5 21.5 -53.5h-27c0 13.333 -3.83301 24 -11.5 32
s-17.834 12 -30.501 12s-22.834 -4.16699 -30.501 -12.5s-11.5 -21.166 -11.5 -38.499s5 -31 15 -41s21 -15 33 -15h68v-27h-164v27zM75.0029 -0.000976562v715h60v-715h-60z" />
    <glyph glyph-name="uni0626" unicode="&#x626;" horiz-adv-x="774" arabic-form="isolated" 
d="M41 365l40.0029 -0.00195312v4c-4.66699 6 -9.33398 13.833 -14.001 23.5s-7 20.834 -7 33.501c0 19.333 6.16699 36.333 18.5 51s29.833 22 52.5 22c18 0 33.833 -5.83301 47.5 -17.5s20.834 -29.5 21.5 -53.5h-27c0 13.333 -3.83301 24 -11.5 32s-17.834 12 -30.501 12
s-22.834 -4.16699 -30.501 -12.5s-11.5 -21.166 -11.5 -38.499s5 -31 15 -41s21 -15 33 -15h68v-27h-164v27zM392.003 -177.002c40.667 0 77.502 3.00391 110.502 9.00391s61 15.167 84 27.5s40.667 27.666 53 45.999s18.5 39.5 18.5 63.5c0 12.667 -2.5 23.667 -7.5 33
s-13.833 18.166 -26.5 26.499s-29.667 16.666 -51 24.999s-48 17.833 -80 28.5c-54 17.333 -94.667 42.333 -122 75s-41 70.667 -41 114c0 25.333 3.33301 51 10 77s17.667 49.667 33 71c15.334 21.334 35.167 38.667 59.5 51.999c24.333 13.333 54.5 20 90.5 20
c52.668 0 95.335 -18 128 -54c32.6689 -36 51.3359 -87.333 56 -154h-53c-0.666992 20 -4.33398 39.167 -11.001 57.5s-15.667 34.333 -27 48s-25 24.5 -41 32.5s-33.333 12 -52 12c-42.667 0 -75.334 -13.833 -98 -41.5c-22.667 -27.667 -34 -67.834 -34 -120.5
c0 -20 4 -37.167 12 -51.5s19.333 -27 34 -38s32.667 -21 54 -30s45 -17.833 71 -26.5c28.6689 -9.33301 52.8359 -19 72.5 -29c19.6689 -10 35.8359 -21 48.5 -33c12.6719 -12 21.8389 -25.5 27.5 -40.5c5.66699 -15 8.5 -32.833 8.5 -53.5c0 -27.333 -6 -53.333 -18 -78
s-31 -46.667 -57 -66s-59.833 -34.666 -101.5 -46c-41.667 -11.333 -92.167 -17 -151.5 -17c-63.333 0 -117 8.16699 -161 24.5s-79.667 40 -107 71s-47.333 68.667 -60 113s-19.334 94.166 -20.001 149.499h58c0 -58.667 6.83301 -107.167 20.5 -145.5
s33.167 -68.666 58.5 -90.999s56 -38 92 -47s76 -13.5 120 -13.5z" />
    <glyph glyph-name="uni0627" unicode="&#x627;" horiz-adv-x="210" arabic-form="isolated" 
d="M75 0v715h60v-715h-60z" />
    <glyph glyph-name="uni0628" unicode="&#x628;" horiz-adv-x="968" arabic-form="isolated" 
d="M480 -95h60v-117h-60v117zM259 0c-28.667 0 -54.999 4.49902 -78.999 13.499s-44.833 22.833 -62.5 41.5s-31.334 42.667 -41.001 72s-14.5 64 -14.5 104v67h54v-68c0 -61.333 11.833 -105.666 35.5 -132.999s59.5 -41 107.5 -41h574v370h60v-426h-634z" />
    <glyph glyph-name="uni0629" unicode="&#x629;" horiz-adv-x="554" arabic-form="isolated" 
d="M342 715h60v-117h-60v117zM193 715h60v-117h-60v117zM277 -11c-37.333 0 -69.834 6.66699 -97.501 20s-50.834 31.333 -69.501 54s-32.5 49.167 -41.5 79.5s-13.5 62.833 -13.5 97.5s4.5 67.167 13.5 97.5s22.833 56.833 41.5 79.5s41.834 40.667 69.501 54
s60.167 20 97.5 20s69.833 -6.66699 97.5 -20s50.834 -31.333 69.501 -54s32.5 -49.167 41.5 -79.5s13.5 -62.833 13.5 -97.5s-4.5 -67.167 -13.5 -97.5s-22.833 -56.833 -41.5 -79.5s-41.834 -40.667 -69.5 -54c-27.667 -13.333 -60.167 -20 -97.5 -20zM276.999 52
c54.667 0 94.5 17 119.5 51s37.5 79.667 37.5 137c0 56.667 -12.5 102.334 -37.5 137.001s-64.833 52 -119.5 52s-94.5 -17.333 -119.5 -52s-37.5 -80.334 -37.5 -137.001c0 -57.333 12.5 -103 37.5 -137s64.833 -51 119.5 -51z" />
    <glyph glyph-name="uni062A" unicode="&#x62a;" horiz-adv-x="968" arabic-form="isolated" 
d="M520 628h60v-117h-60v117zM371 628h60v-117h-60v117zM259 0c-28.667 0 -54.999 4.49902 -78.999 13.499s-44.833 22.833 -62.5 41.5s-31.334 42.667 -41.001 72s-14.5 64 -14.5 104v67h54v-68c0 -61.333 11.833 -105.666 35.5 -132.999s59.5 -41 107.5 -41h574v370h60
v-426h-634z" />
    <glyph glyph-name="uni062B" unicode="&#x62b;" horiz-adv-x="968" arabic-form="isolated" 
d="M453 781h60v-117h-60v117zM527 627h60v-117h-60v117zM378 627h60v-117h-60v117zM259 0c-28.667 0 -54.999 4.49902 -78.999 13.499s-44.833 22.833 -62.5 41.5s-31.334 42.667 -41.001 72s-14.5 64 -14.5 104v67h54v-68c0 -61.333 11.833 -105.666 35.5 -132.999
s59.5 -41 107.5 -41h574v370h60v-426h-634z" />
    <glyph glyph-name="uni062C" unicode="&#x62c;" horiz-adv-x="659" arabic-form="isolated" 
d="M296 -66h54v-105h-54v105zM316 430c-20.667 0 -40.6699 -3.49902 -60.0029 -10.499s-36.833 -17.167 -52.5 -30.5s-28.834 -30 -39.501 -50s-18 -43 -22 -69h-62c2.66699 28 10.334 55.333 23.001 82s29.167 50.334 49.5 71.001s44.333 37.167 72 49.5
s58.167 18.5 91.5 18.5c32.667 0 62.5 -6.16699 89.5 -18.5s50.667 -29.833 71 -52.5s37 -50 50 -82s22.167 -68 27.5 -108c4.6748 -36.667 8.8418 -67 12.5 -91c3.66699 -24 7 -44.333 10 -61s5.83301 -30.834 8.5 -42.501s5.66699 -23.5 9 -35.5h-340
c-53.333 0 -93.333 -9.33301 -120 -28s-40 -46 -40 -82c0 -22.667 3.66699 -44.334 11 -65.001s18.333 -41.667 33 -63h-58c-13.333 16.667 -24.166 36.5 -32.499 59.5s-12.5 46.833 -12.5 71.5c0 22.667 4 44 12 64s20.667 37.333 38 52s39.833 26.167 67.5 34.5
s61.5 12.5 101.5 12.5h269c-1.34961 4 -3.68262 13.5 -7 28.5c-3.33301 15 -6.66602 31.833 -9.99902 50.5s-6.66602 37.667 -9.99902 57s-6 35 -8 47c-10 63.333 -30.833 111 -62.5 143s-68.167 48 -109.5 48z" />
    <glyph glyph-name="uni062D" unicode="&#x62d;" horiz-adv-x="659" arabic-form="isolated" 
d="M316 430c-20.667 0 -40.6699 -3.49902 -60.0029 -10.499s-36.833 -17.167 -52.5 -30.5s-28.834 -30 -39.501 -50s-18 -43 -22 -69h-62c2.66699 28 10.334 55.333 23.001 82s29.167 50.334 49.5 71.001s44.333 37.167 72 49.5s58.167 18.5 91.5 18.5
c32.667 0 62.5 -6.16699 89.5 -18.5s50.667 -29.833 71 -52.5s37 -50 50 -82s22.167 -68 27.5 -108c4.6748 -36.667 8.8418 -67 12.5 -91c3.66699 -24 7 -44.333 10 -61s5.83301 -30.834 8.5 -42.501s5.66699 -23.5 9 -35.5h-340c-53.333 0 -93.333 -9.33301 -120 -28
s-40 -46 -40 -82c0 -22.667 3.66699 -44.334 11 -65.001s18.333 -41.667 33 -63h-58c-13.333 16.667 -24.166 36.5 -32.499 59.5s-12.5 46.833 -12.5 71.5c0 22.667 4 44 12 64s20.667 37.333 38 52s39.833 26.167 67.5 34.5s61.5 12.5 101.5 12.5h269
c-1.34961 4 -3.68262 13.5 -7 28.5c-3.33301 15 -6.66602 31.833 -9.99902 50.5s-6.66602 37.667 -9.99902 57s-6 35 -8 47c-10 63.333 -30.833 111 -62.5 143s-68.167 48 -109.5 48z" />
    <glyph glyph-name="uni062E" unicode="&#x62e;" horiz-adv-x="659" arabic-form="isolated" 
d="M278 715h60v-117h-60v117zM316 430c-20.667 0 -40.6699 -3.49902 -60.0029 -10.499s-36.833 -17.167 -52.5 -30.5s-28.834 -30 -39.501 -50s-18 -43 -22 -69h-62c2.66699 28 10.334 55.333 23.001 82s29.167 50.334 49.5 71.001s44.333 37.167 72 49.5
s58.167 18.5 91.5 18.5c32.667 0 62.5 -6.16699 89.5 -18.5s50.667 -29.833 71 -52.5s37 -50 50 -82s22.167 -68 27.5 -108c4.6748 -36.667 8.8418 -67 12.5 -91c3.66699 -24 7 -44.333 10 -61s5.83301 -30.834 8.5 -42.501s5.66699 -23.5 9 -35.5h-340
c-53.333 0 -93.333 -9.33301 -120 -28s-40 -46 -40 -82c0 -22.667 3.66699 -44.334 11 -65.001s18.333 -41.667 33 -63h-58c-13.333 16.667 -24.166 36.5 -32.499 59.5s-12.5 46.833 -12.5 71.5c0 22.667 4 44 12 64s20.667 37.333 38 52s39.833 26.167 67.5 34.5
s61.5 12.5 101.5 12.5h269c-1.34961 4 -3.68262 13.5 -7 28.5c-3.33301 15 -6.66602 31.833 -9.99902 50.5s-6.66602 37.667 -9.99902 57s-6 35 -8 47c-10 63.333 -30.833 111 -62.5 143s-68.167 48 -109.5 48z" />
    <glyph glyph-name="uni062F" unicode="&#x62f;" horiz-adv-x="479" arabic-form="isolated" 
d="M62 0v55.999h293v152c0 28 -3 54.667 -9 80c-6 25.334 -15.5 47.667 -28.5 67c-13 19.334 -30.167 34.667 -51.5 46s-47.333 17 -78 17h-82v56h67c34 0 65.667 -5.33301 95 -16s54.833 -27 76.5 -49s38.667 -49.667 51 -83s18.5 -72.666 18.5 -117.999v-208h-352z" />
    <glyph glyph-name="uni0630" unicode="&#x630;" horiz-adv-x="479" arabic-form="isolated" 
d="M146 716h60v-117h-60v117zM62 0v55.999h293v152c0 28 -3 54.667 -9 80c-6 25.334 -15.5 47.667 -28.5 67c-13 19.334 -30.167 34.667 -51.5 46s-47.333 17 -78 17h-82v56h67c34 0 65.667 -5.33301 95 -16s54.833 -27 76.5 -49s38.667 -49.667 51 -83
s18.5 -72.666 18.5 -117.999v-208h-352z" />
    <glyph glyph-name="uni0631" unicode="&#x631;" horiz-adv-x="317" arabic-form="isolated" 
d="M91 -178c17.333 0 31.832 2.83398 43.499 8.50098c11.667 5.66602 21 15.333 28 29s12 31.5 15 53.5s4.5 49.667 4.5 83v430h60v-430c0 -35.333 -2.33301 -67.333 -7 -96s-12.5 -53.334 -23.5 -74.001s-25.333 -36.5 -43 -47.5s-39.5 -16.5 -65.5 -16.5
c-14 0 -25.667 0.833008 -35 2.5c-9.33301 1.66504 -16.666 3.83203 -21.999 6.5c-6.66699 2.66699 -12 5.66699 -16 9v59c10 -5.33301 19.833 -9.5 29.5 -12.5s20.167 -4.5 31.5 -4.5z" />
    <glyph glyph-name="uni0632" unicode="&#x632;" horiz-adv-x="331" arabic-form="isolated" 
d="M196 715h60v-117h-60v117zM91 -178c17.333 0 31.832 2.83398 43.499 8.50098c11.667 5.66602 21 15.333 28 29s12 31.5 15 53.5s4.5 49.667 4.5 83v430h60v-430c0 -35.333 -2.33301 -67.333 -7 -96s-12.5 -53.334 -23.5 -74.001s-25.333 -36.5 -43 -47.5
s-39.5 -16.5 -65.5 -16.5c-14 0 -25.667 0.833008 -35 2.5c-9.33301 1.66504 -16.666 3.83203 -21.999 6.5c-6.66699 2.66699 -12 5.66699 -16 9v59c10 -5.33301 19.833 -9.5 29.5 -12.5s20.167 -4.5 31.5 -4.5z" />
    <glyph glyph-name="uni0633" unicode="&#x633;" horiz-adv-x="1404" arabic-form="isolated" 
d="M852 58c42 0 71.665 9.99707 88.998 29.9971s26 50 26 90v227h61v-225c0 -14 0.666992 -28.333 2 -43c1.36523 -14.667 4.69824 -28 10 -40c5.34961 -12 13.6826 -21.833 25 -29.5c11.3496 -7.66699 26.6826 -11.5 45.999 -11.5h158v370h60v-426h-217
c-8.66699 0 -18.5 1.66699 -29.5 5s-21.667 8.16602 -32 14.499s-19.666 14.333 -27.999 24s-13.833 20.834 -16.5 33.501c-14 -26.667 -33.333 -46.667 -58 -60s-53 -20 -85 -20c-34 0 -62.667 7 -86 21c-23.3359 14 -41.6689 32.667 -54.999 56
c-7.33887 -41.333 -19.1719 -80.666 -35.5 -117.999c-16.333 -37.333 -38.5 -70.5 -66.5 -99.5s-62.167 -52 -102.5 -69s-88.5 -25.5 -144.5 -25.5c-105.333 0 -187.166 36 -245.499 108s-87.5 179.667 -87.5 323v66h60v-66c0 -60.667 5 -114.167 15 -160.5
s25.833 -85.166 47.5 -116.499s49.667 -55 84 -71s75.833 -24 124.5 -24c97.334 0 171.834 30.833 223.5 92.5c51.667 61.667 77.5 154.834 77.5 279.501v191h60v-192c0 -43.333 11.333 -76.5 34 -99.5c22.668 -23 51.335 -34.5 86 -34.5z" />
    <glyph glyph-name="uni0634" unicode="&#x634;" horiz-adv-x="1404" arabic-form="isolated" 
d="M979 870h60v-117h-60v117zM1053 716h60v-117h-60v117zM904 716h60v-117h-60v117zM852 58c42 0 71.665 9.99707 88.998 29.9971s26 50 26 90v227h61v-225c0 -14 0.666992 -28.333 2 -43c1.36523 -14.667 4.69824 -28 10 -40c5.34961 -12 13.6826 -21.833 25 -29.5
c11.3496 -7.66699 26.6826 -11.5 45.999 -11.5h158v370h60v-426h-217c-8.66699 0 -18.5 1.66699 -29.5 5s-21.667 8.16602 -32 14.499s-19.666 14.333 -27.999 24s-13.833 20.834 -16.5 33.501c-14 -26.667 -33.333 -46.667 -58 -60s-53 -20 -85 -20c-34 0 -62.667 7 -86 21
c-23.3359 14 -41.6689 32.667 -54.999 56c-7.33887 -41.333 -19.1719 -80.666 -35.5 -117.999c-16.333 -37.333 -38.5 -70.5 -66.5 -99.5s-62.167 -52 -102.5 -69s-88.5 -25.5 -144.5 -25.5c-105.333 0 -187.166 36 -245.499 108s-87.5 179.667 -87.5 323v66h60v-66
c0 -60.667 5 -114.167 15 -160.5s25.833 -85.166 47.5 -116.499s49.667 -55 84 -71s75.833 -24 124.5 -24c97.334 0 171.834 30.833 223.5 92.5c51.667 61.667 77.5 154.834 77.5 279.501v191h60v-192c0 -43.333 11.333 -76.5 34 -99.5c22.668 -23 51.335 -34.5 86 -34.5z
" />
    <glyph glyph-name="uni0635" unicode="&#x635;" horiz-adv-x="1436" arabic-form="isolated" 
d="M373 -238c-105.333 0 -187.168 35.9961 -245.501 107.996s-87.5 179.667 -87.5 323v65h60v-65c0 -60.667 5 -114.167 15 -160.5s25.833 -85.166 47.5 -116.499s49.667 -55 84 -71s75.833 -24 124.5 -24c97.334 0 171.834 30.833 223.5 92.5
c51.667 61.667 77.5 154.834 77.5 279.501v205h60v-206v-18c0 -6 -0.333008 -11.667 -1 -17h4c20.667 32.667 45.167 67.334 73.5 104.001s59.5 70.5 93.5 101.5s70.667 56.5 110 76.5s80.333 30 123 30c36 0 68.5 -5.83301 97.5 -17.5s53.667 -28.167 74 -49.5
c20.3438 -21.333 36.1768 -47.166 47.5 -77.499c11.333 -30.333 17 -64.166 17 -101.499v-223h-667c-11.333 -33.333 -26 -64.333 -44 -93s-40.333 -53.834 -67 -75.501s-58.167 -38.667 -94.5 -51s-78.166 -18.5 -125.499 -18.5zM1131 411.996
c-26.667 0 -53.5 -6.5 -80.5 -19.5s-53.5 -30 -79.5 -51s-51 -44.667 -75 -71c-24 -26.334 -46.333 -52.667 -67 -79s-39.167 -51.5 -55.5 -75.5s-29.5 -44 -39.5 -60h577v170c0 29.333 -4.33301 55.5 -13 78.5s-21 42.5 -37 58.5s-35 28.167 -57 36.5
s-46.333 12.5 -73 12.5z" />
    <glyph glyph-name="uni0636" unicode="&#x636;" horiz-adv-x="1436" arabic-form="isolated" 
d="M373 -238c-105.333 0 -187.168 35.9961 -245.501 107.996s-87.5 179.667 -87.5 323v65h60v-65c0 -60.667 5 -114.167 15 -160.5s25.833 -85.166 47.5 -116.499s49.667 -55 84 -71s75.833 -24 124.5 -24c97.334 0 171.834 30.833 223.5 92.5
c51.667 61.667 77.5 154.834 77.5 279.501v205h60v-206v-18c0 -6 -0.333008 -11.667 -1 -17h4c20.667 32.667 45.167 67.334 73.5 104.001s59.5 70.5 93.5 101.5s70.667 56.5 110 76.5s80.333 30 123 30c36 0 68.5 -5.83301 97.5 -17.5s53.667 -28.167 74 -49.5
c20.3438 -21.333 36.1768 -47.166 47.5 -77.499c11.333 -30.333 17 -64.166 17 -101.499v-223h-667c-11.333 -33.333 -26 -64.333 -44 -93s-40.333 -53.834 -67 -75.501s-58.167 -38.667 -94.5 -51s-78.166 -18.5 -125.499 -18.5zM1131 411.996
c-26.667 0 -53.5 -6.5 -80.5 -19.5s-53.5 -30 -79.5 -51s-51 -44.667 -75 -71c-24 -26.334 -46.333 -52.667 -67 -79s-39.167 -51.5 -55.5 -75.5s-29.5 -44 -39.5 -60h577v170c0 29.333 -4.33301 55.5 -13 78.5s-21 42.5 -37 58.5s-35 28.167 -57 36.5
s-46.333 12.5 -73 12.5zM837.998 714.996h60v-117h-60v117z" />
    <glyph glyph-name="uni0637" unicode="&#x637;" horiz-adv-x="882" arabic-form="isolated" 
d="M817 0l-781.999 -0.00390625v56h96v659h61v-549h6c20 32.667 43.5 66.834 70.5 102.501s56.667 68.334 89 98.001c32.334 29.667 67.167 54.167 104.5 73.5s77 29 119 29c36 0 68.5 -5.83301 97.5 -17.5s53.667 -28.167 74 -49.5s36.166 -47.166 47.499 -77.499
s17 -64.166 17 -101.499v-223zM577.001 411.996c-26 0 -52.333 -6.5 -79 -19.5s-52.667 -30 -78 -51s-49.666 -44.667 -72.999 -71c-23.333 -26.334 -44.833 -52.667 -64.5 -79s-37.334 -51.5 -53.001 -75.5s-28.167 -44 -37.5 -60h565v170c0 29.333 -4.33301 55.5 -13 78.5
s-21 42.5 -37 58.5s-35 28.167 -57 36.5s-46.333 12.5 -73 12.5z" />
    <glyph glyph-name="uni0638" unicode="&#x638;" horiz-adv-x="882" arabic-form="isolated" 
d="M413 687h60v-117h-60v117zM817 0l-781.999 -0.00390625v56h96v659h61v-549h6c20 32.667 43.5 66.834 70.5 102.501s56.667 68.334 89 98.001c32.334 29.667 67.167 54.167 104.5 73.5s77 29 119 29c36 0 68.5 -5.83301 97.5 -17.5s53.667 -28.167 74 -49.5
s36.166 -47.166 47.499 -77.499s17 -64.166 17 -101.499v-223zM577.001 411.996c-26 0 -52.333 -6.5 -79 -19.5s-52.667 -30 -78 -51s-49.666 -44.667 -72.999 -71c-23.333 -26.334 -44.833 -52.667 -64.5 -79s-37.334 -51.5 -53.001 -75.5s-28.167 -44 -37.5 -60h565v170
c0 29.333 -4.33301 55.5 -13 78.5s-21 42.5 -37 58.5s-35 28.167 -57 36.5s-46.333 12.5 -73 12.5z" />
    <glyph glyph-name="uni0639" unicode="&#x639;" horiz-adv-x="559" arabic-form="isolated" 
d="M301 428c-40 0 -71.9961 -13.6709 -95.9961 -41.0039s-36 -70 -36 -128c0 -28.667 4.5 -55.334 13.5 -80.001s21.167 -46.167 36.5 -64.5s33.333 -32.666 54 -42.999s42.667 -15.5 66 -15.5h165v-56h-250c-53.333 0 -93.333 -9.33301 -120 -28s-40 -46 -40 -82
c0 -22.667 3.66699 -44.334 11 -65.001s18.333 -41.667 33 -63h-58c-13.333 16.667 -24.166 36.5 -32.499 59.5s-12.5 46.833 -12.5 71.5c0 20 3 38.667 9 56s15.333 33 28 47s29.167 25.833 49.5 35.5s45.166 16.5 74.499 20.5c-8 6.66699 -17.333 16.334 -28 29.001
s-20.834 27.834 -30.501 45.501s-17.834 37.667 -24.501 60s-10 46.5 -10 72.5c0 33.334 4.66699 64.167 14 92.5s22.666 52.833 39.999 73.5s38.166 36.834 62.499 48.501s51.5 17.5 81.5 17.5s56.5 -6 79.5 -18s42.5 -27.5 58.5 -46.5s28 -40.5 36 -64.5s12 -48 12 -72
h-56c0 18 -2.83301 35.333 -8.5 52s-14 31.334 -25 44.001s-24.667 22.834 -41 30.501s-34.833 11.5 -55.5 11.5z" />
    <glyph glyph-name="uni063A" unicode="&#x63a;" horiz-adv-x="559" arabic-form="isolated" 
d="M292 727h60v-117h-60v117zM301 428c-40 0 -71.9961 -13.6709 -95.9961 -41.0039s-36 -70 -36 -128c0 -28.667 4.5 -55.334 13.5 -80.001s21.167 -46.167 36.5 -64.5s33.333 -32.666 54 -42.999s42.667 -15.5 66 -15.5h165v-56h-250c-53.333 0 -93.333 -9.33301 -120 -28
s-40 -46 -40 -82c0 -22.667 3.66699 -44.334 11 -65.001s18.333 -41.667 33 -63h-58c-13.333 16.667 -24.166 36.5 -32.499 59.5s-12.5 46.833 -12.5 71.5c0 20 3 38.667 9 56s15.333 33 28 47s29.167 25.833 49.5 35.5s45.166 16.5 74.499 20.5
c-8 6.66699 -17.333 16.334 -28 29.001s-20.834 27.834 -30.501 45.501s-17.834 37.667 -24.501 60s-10 46.5 -10 72.5c0 33.334 4.66699 64.167 14 92.5s22.666 52.833 39.999 73.5s38.166 36.834 62.499 48.501s51.5 17.5 81.5 17.5s56.5 -6 79.5 -18
s42.5 -27.5 58.5 -46.5s28 -40.5 36 -64.5s12 -48 12 -72h-56c0 18 -2.83301 35.333 -8.5 52s-14 31.334 -25 44.001s-24.667 22.834 -41 30.501s-34.833 11.5 -55.5 11.5z" />
    <glyph glyph-name="uni0641" unicode="&#x641;" horiz-adv-x="1097" arabic-form="isolated" 
d="M795 715h60v-117h-60v117zM978 245c0 62 -14.333 108.667 -43 140s-67 47 -115 47s-86.333 -15.667 -115 -47s-43 -78 -43 -140s14.333 -109.333 43 -142s67 -49 115 -49s86.333 16.333 115 49s43 80 43 142zM598 245c0 36.667 4.83398 70.001 14.501 100.001
c9.66895 30 23.8359 55.833 42.5 77.5c18.668 21.667 41.835 38.5 69.5 50.5c27.667 12 59.5 18 95.5 18s67.833 -6 95.5 -18c27.6699 -12 50.8369 -28.833 69.5 -50.5c18.6709 -21.667 32.8379 -47.5 42.501 -77.5c9.66699 -30 14.5 -63.333 14.5 -100s-4.5 -70 -13.5 -100
s-22.833 -55.833 -41.5 -77.5s-41.834 -38.334 -69.501 -50.001s-60.167 -17.5 -97.5 -17.5h-561c-28.667 0 -55 4.5 -79 13.5s-44.833 22.833 -62.5 41.5s-31.334 42.667 -41.001 72s-14.5 64 -14.5 104v67h54v-68c0 -61.333 11.833 -105.666 35.5 -132.999
s59.5 -41 107.5 -41h414c-21.3359 21.333 -39.1689 48.166 -53.5 80.499c-14.333 32.333 -21.5 68.5 -21.5 108.5z" />
    <glyph glyph-name="uni0642" unicode="&#x642;" horiz-adv-x="797" arabic-form="isolated" 
d="M581 715h60v-117h-60v117zM432 715h60v-117h-60v117zM387 -215c41.333 0 77.332 4.83301 107.999 14.5c30.667 9.66602 57 23.833 79 42.5s39.833 41.334 53.5 68.001s24.167 56.667 31.5 90h-125c-35.333 0 -66 6 -92 18s-47.667 28.5 -65 49.5s-30.333 45.667 -39 74
s-13 59.166 -13 92.499s3.16699 65.5 9.5 96.5s17.333 58.333 33 82s37 42.667 64 57s61.167 21.5 102.5 21.5s75.5 -6.66699 102.5 -20s48.333 -32.833 64 -58.5s26.667 -57 33 -94s9.5 -79.167 9.5 -126.5c0 -78 -6.66699 -146.333 -20 -205s-34.5 -107.667 -63.5 -147
s-66.167 -68.833 -111.5 -88.5s-99.666 -29.5 -162.999 -29.5s-116.833 9.33301 -160.5 28c-43.667 18.666 -79 44.833 -106 78.5s-46.5 74.334 -58.5 122.001s-18.333 100.5 -19 158.5h59c0 -110.667 23.833 -192.334 71.5 -245.001s119.5 -79 215.5 -79zM390.999 234
c0 -58 11.165 -102.169 33.498 -132.502s58.833 -45.5 109.5 -45.5h135c2.66699 21.333 4.66699 43.833 6 67.5s2 48.167 2 73.5c0 78.667 -10.667 137.334 -32 176.001s-58 58 -110 58c-26 0 -48.167 -4.83301 -66.5 -14.5s-33.166 -23.167 -44.499 -40.5
s-19.666 -38.166 -24.999 -62.499s-8 -50.833 -8 -79.5z" />
    <glyph glyph-name="uni0643" unicode="&#x643;" horiz-adv-x="729" arabic-form="isolated" 
d="M252 293v35.998h45v4c-4 5.33301 -8.33301 12.5 -13 21.5s-7 18.167 -7 27.5c0 20.667 6.33301 38 19 52s32 21 58 21s45 -6 57 -18s18.667 -29.667 20 -53h-39c0 10 -3.5 18.5 -10.5 25.5s-16.167 10.5 -27.5 10.5c-12 0 -20.833 -4 -26.5 -12s-8.5 -18.667 -8.5 -32
s3.66699 -24.166 11 -32.499s16 -13.166 26 -14.499h83v-36h-187zM259 -0.00195312c-28.667 0 -54.999 4.49902 -78.999 13.499s-44.833 22.833 -62.5 41.5s-31.334 42.667 -41.001 72s-14.5 64 -14.5 104v67h54v-68c0 -61.333 11.833 -105.666 35.5 -132.999
s59.5 -41 107.5 -41h335v659h60v-715h-395z" />
    <glyph glyph-name="uni0644" unicode="&#x644;" horiz-adv-x="706" arabic-form="isolated" 
d="M631 715l-0.000976562 -513.001c0 -67.333 -4.66699 -128.166 -14 -182.499c-9.33594 -54.333 -25.6689 -100.5 -49 -138.5c-23.333 -38 -54.5 -67.333 -93.5 -88s-87.833 -31 -146.5 -31c-59.333 0 -107.666 10.333 -144.999 31s-66.5 49.667 -87.5 87
s-35.5 82 -43.5 134s-12 109.667 -12 173h56c0 -67.333 4 -124 12 -170s21.167 -83.333 39.5 -112s42.5 -49.167 72.5 -61.5s67 -18.5 111 -18.5c40 0 75 6.5 105 19.5s55.167 34 75.5 63s35.5 66.333 45.5 112s15 101.5 15 167.5v528h59z" />
    <glyph glyph-name="uni0645" unicode="&#x645;" horiz-adv-x="636" arabic-form="isolated" 
d="M517 245c0 62 -14.333 108.667 -43 140s-67 47 -115 47s-86.333 -15.667 -115 -47s-43 -78 -43 -140s14.333 -109.333 43 -142s67 -49 115 -49s86.333 16.333 115 49s43 80 43 142zM137 245c0 36.667 4.83301 70.001 14.5 100.001s23.834 55.833 42.5 77.5
c18.667 21.667 41.834 38.5 69.501 50.5s59.5 18 95.5 18s67.833 -6 95.5 -18s50.834 -28.833 69.501 -50.5c18.6689 -21.667 32.8359 -47.5 42.5 -77.5c9.66699 -30 14.5 -63.333 14.5 -100s-4.5 -70 -13.5 -100s-22.833 -55.833 -41.5 -77.5
s-41.834 -38.334 -69.5 -50.001c-27.667 -11.667 -60.167 -17.5 -97.5 -17.5h-131c-42.667 -0 -75.5 -8.66699 -98.5 -26s-34.5 -41.666 -34.5 -72.999v-139h-60v138c0 21.333 3.66699 41.5 11 60.5s18.166 35.5 32.499 49.5s32.666 25.167 54.999 33.5s48.5 12.5 78.5 12.5
c-21.334 21.333 -39.167 48.166 -53.5 80.499s-21.5 68.5 -21.5 108.5z" />
    <glyph glyph-name="uni0646" unicode="&#x646;" horiz-adv-x="807" arabic-form="isolated" 
d="M362 488h60v-117h-60v117zM373 -238c-105.333 0 -187.167 35.998 -245.5 107.998s-87.5 179.667 -87.5 323v87h60v-87c0 -60.667 5 -114.167 15 -160.5s25.833 -85.166 47.5 -116.499s49.667 -55 84 -71s75.833 -24 124.5 -24c97.334 0 171.834 30.833 223.5 92.5
c51.667 61.667 77.5 154.834 77.5 279.501v108h60v-109c0 -51.333 -5.83301 -102.5 -17.5 -153.5s-31.167 -97 -58.5 -138c-27.334 -41 -64.167 -74.333 -110.5 -100s-103.833 -38.5 -172.5 -38.5z" />
    <glyph glyph-name="uni0648" unicode="&#x648;" horiz-adv-x="528" arabic-form="isolated" 
d="M204 -238c-14 0 -26.333 0.667969 -37 2.00098s-19.667 3 -27 5c-8.66699 2.66504 -16.334 5.33203 -23.001 8v61c9.33301 -4.66699 20.5 -8.5 33.5 -11.5s25.833 -4.5 38.5 -4.5c30.667 0 57.667 2.66699 81 8s43.333 14.833 60 28.5s30.167 31.834 40.5 54.501
s18.5 51.667 24.5 87h-131c-35.333 0 -66 6 -92 18s-47.667 28.5 -65 49.5s-30.333 45.667 -39 74s-13 59.166 -13 92.499s3.16699 65.5 9.5 96.5s17.333 58.333 33 82s37 42.667 64 57s61.167 21.5 102.5 21.5s75.5 -6.66699 102.5 -20s48.333 -32.833 64 -58.5
s26.667 -57 33 -94s9.5 -79.167 9.5 -126.5c0 -81.333 -5 -149.333 -15 -204s-25.667 -98.834 -47 -132.501s-49.166 -57.667 -83.499 -72s-75.5 -21.5 -123.5 -21.5zM121 234.001c0 -58 11.167 -102.168 33.5 -132.501s58.833 -45.5 109.5 -45.5h138
c1.33301 20 2.5 41.667 3.5 65s1.5 48.666 1.5 75.999c0 78.667 -10.667 137.334 -32 176.001s-58 58 -110 58c-26 0 -48.167 -4.83301 -66.5 -14.5c-18.334 -9.66699 -33.167 -23.167 -44.5 -40.5c-11.334 -17.333 -19.667 -38.166 -25 -62.499s-8 -50.833 -8 -79.5z" />
    <glyph glyph-name="uni0649" unicode="&#x649;" horiz-adv-x="771" arabic-form="isolated" 
d="M389 -177c40.667 0 77.501 3.00391 110.501 9.00391s61 15.167 84 27.5s40.667 27.666 53 45.999s18.5 39.5 18.5 63.5c0 12.667 -2.5 23.667 -7.5 33s-13.833 18.166 -26.5 26.499s-29.667 16.666 -51 24.999s-48 17.833 -80 28.5c-54 17.333 -94.667 42.333 -122 75
s-41 70.667 -41 114c0 25.333 3.33301 51 10 77s17.667 49.667 33 71c15.334 21.334 35.167 38.667 59.5 51.999c24.333 13.333 54.5 20 90.5 20c52.668 0 95.335 -18 128.001 -54c32.6689 -36 51.3359 -87.333 56 -154h-53c-0.666992 20 -4.33398 39.167 -11.001 57.5
s-15.667 34.333 -27 48s-25 24.5 -41 32.5s-33.333 12 -52 12c-42.667 0 -75.334 -13.833 -98 -41.5c-22.667 -27.667 -34 -67.834 -34 -120.5c0 -20 4 -37.167 12 -51.5s19.333 -27 34 -38s32.667 -21 54 -30s45 -17.833 71 -26.5c28.6689 -9.33301 52.8359 -19 72.5 -29
c19.6689 -10 35.8359 -21 48.5 -33c12.6719 -12 21.8389 -25.5 27.5 -40.5c5.66699 -15 8.5 -32.833 8.5 -53.5c0 -27.333 -6 -53.333 -18 -78s-31 -46.667 -57 -66s-59.833 -34.666 -101.5 -46c-41.667 -11.333 -92.167 -17 -151.5 -17c-63.333 0 -117 8.16699 -161 24.5
s-79.667 40 -107 71s-47.333 68.667 -60 113s-19.334 94.166 -20.001 149.499h58c0 -58.667 6.83301 -107.167 20.5 -145.5s33.167 -68.666 58.5 -90.999s56 -38 92 -47s76 -13.5 120 -13.5z" />
    <glyph glyph-name="uni064A" unicode="&#x64a;" horiz-adv-x="771" arabic-form="isolated" 
d="M474 -352h60v-117h-60v117zM325 -352h60v-117h-60v117zM389 -177c40.667 0 77.501 3.00391 110.501 9.00391s61 15.167 84 27.5s40.667 27.666 53 45.999s18.5 39.5 18.5 63.5c0 12.667 -2.5 23.667 -7.5 33s-13.833 18.166 -26.5 26.499s-29.667 16.666 -51 24.999
s-48 17.833 -80 28.5c-54 17.333 -94.667 42.333 -122 75s-41 70.667 -41 114c0 25.333 3.33301 51 10 77s17.667 49.667 33 71c15.334 21.334 35.167 38.667 59.5 51.999c24.333 13.333 54.5 20 90.5 20c52.668 0 95.335 -18 128.001 -54
c32.6689 -36 51.3359 -87.333 56 -154h-53c-0.666992 20 -4.33398 39.167 -11.001 57.5s-15.667 34.333 -27 48s-25 24.5 -41 32.5s-33.333 12 -52 12c-42.667 0 -75.334 -13.833 -98 -41.5c-22.667 -27.667 -34 -67.834 -34 -120.5c0 -20 4 -37.167 12 -51.5
s19.333 -27 34 -38s32.667 -21 54 -30s45 -17.833 71 -26.5c28.6689 -9.33301 52.8359 -19 72.5 -29c19.6689 -10 35.8359 -21 48.5 -33c12.6719 -12 21.8389 -25.5 27.5 -40.5c5.66699 -15 8.5 -32.833 8.5 -53.5c0 -27.333 -6 -53.333 -18 -78s-31 -46.667 -57 -66
s-59.833 -34.666 -101.5 -46c-41.667 -11.333 -92.167 -17 -151.5 -17c-63.333 0 -117 8.16699 -161 24.5s-79.667 40 -107 71s-47.333 68.667 -60 113s-19.334 94.166 -20.001 149.499h58c0 -58.667 6.83301 -107.167 20.5 -145.5s33.167 -68.666 58.5 -90.999
s56 -38 92 -47s76 -13.5 120 -13.5z" />
    <glyph glyph-name="uni0671" unicode="&#x671;" horiz-adv-x="210" arabic-form="isolated" 
d="M145 947c21.333 0 37 -7.16699 47 -21.5c10 -14.3369 15 -32.1699 15 -53.5v-52h-201v29h29c4.66699 12 11.167 23.833 19.5 35.5s17.333 22.167 27 31.5s20 16.833 31 22.5s21.833 8.5 32.5 8.5zM176 849v23c0 14 -3.66699 24.5 -11 31.5s-16.333 10.5 -27 10.5
c-8 0 -15.5 -2 -22.5 -6s-13.5 -9.16699 -19.5 -15.5s-11.5 -13.333 -16.5 -21s-9.16699 -15.167 -12.5 -22.5h109zM75 0v715h60v-715h-60z" />
    <glyph glyph-name="uni0679" unicode="&#x679;" horiz-adv-x="968" arabic-form="isolated" 
d="M259 0c-28.667 0 -54.999 4.49902 -78.999 13.499s-44.833 22.833 -62.5 41.5s-31.334 42.667 -41.001 72s-14.5 64 -14.5 104v67h54v-68c0 -61.333 11.833 -105.666 35.5 -132.999s59.5 -41 107.5 -41h574v370h60v-426h-634zM371.001 463.999v146.997h37v-94
c11.334 10.6709 23.167 19.3379 35.5 26.001c12.333 6.66699 24.833 10 37.5 10c26 0 43.5 -7.16699 52.5 -21.5s13.5 -32.166 13.5 -53.499v-52h-205v36h28c0.666992 0.666992 1 1.33398 1 2.00098zM508.001 461.996l-0.00195312 16c0 11.333 -3.33301 20.333 -10 27
s-14.667 10 -24 10c-15.333 0 -28.166 -6 -38.499 -18s-18.166 -23.667 -23.499 -35h96z" />
    <glyph glyph-name="uni067E" unicode="&#x67e;" horiz-adv-x="968" arabic-form="isolated" 
d="M440 -68h39v-76h-39v76zM537 -68h38v-76h-38v76zM489 -167h38v-77h-38v77zM259 0c-28.667 0 -54.999 4.49902 -78.999 13.499s-44.833 22.833 -62.5 41.5s-31.334 42.667 -41.001 72s-14.5 64 -14.5 104v67h54v-68c0 -61.333 11.833 -105.666 35.5 -132.999
s59.5 -41 107.5 -41h574v370h60v-426h-634z" />
    <glyph glyph-name="uni0686" unicode="&#x686;" horiz-adv-x="659" arabic-form="isolated" 
d="M268 -60h39v-76h-39v76zM365 -60h38v-76h-38v76zM317 -159h38v-77h-38v77zM316 430c-20.667 0 -40.6699 -3.49902 -60.0029 -10.499s-36.833 -17.167 -52.5 -30.5s-28.834 -30 -39.501 -50s-18 -43 -22 -69h-62c2.66699 28 10.334 55.333 23.001 82
s29.167 50.334 49.5 71.001s44.333 37.167 72 49.5s58.167 18.5 91.5 18.5c32.667 0 62.5 -6.16699 89.5 -18.5s50.667 -29.833 71 -52.5s37 -50 50 -82s22.167 -68 27.5 -108c4.6748 -36.667 8.8418 -67 12.5 -91c3.66699 -24 7 -44.333 10 -61
s5.83301 -30.834 8.5 -42.501s5.66699 -23.5 9 -35.5h-340c-53.333 0 -93.333 -9.33301 -120 -28s-40 -46 -40 -82c0 -22.667 3.66699 -44.334 11 -65.001s18.333 -41.667 33 -63h-58c-13.333 16.667 -24.166 36.5 -32.499 59.5s-12.5 46.833 -12.5 71.5
c0 22.667 4 44 12 64s20.667 37.333 38 52s39.833 26.167 67.5 34.5s61.5 12.5 101.5 12.5h269c-1.34961 4 -3.68262 13.5 -7 28.5c-3.33301 15 -6.66602 31.833 -9.99902 50.5s-6.66602 37.667 -9.99902 57s-6 35 -8 47c-10 63.333 -30.833 111 -62.5 143
s-68.167 48 -109.5 48z" />
    <glyph glyph-name="uni0688" unicode="&#x688;" horiz-adv-x="525" arabic-form="isolated" 
d="M148 623l0.000976562 147h37v-94c11.333 10.6719 23.166 19.3389 35.499 26c12.333 6.66699 24.833 10 37.5 10c26 0 43.5 -7.16699 52.5 -21.5c9 -14.3359 13.5 -32.1689 13.5 -53.5v-52h-205v36h28c0.666992 0.675781 1 1.34277 1 2zM285.001 621v16
c0 11.333 -3.33301 20.333 -10 27s-14.667 10 -24 10c-15.334 0 -28.167 -6 -38.5 -18c-10.334 -12 -18.167 -23.667 -23.5 -35h96zM108.001 0v55.999h293v152c0 28 -3 54.667 -9 80c-6 25.334 -15.5 47.667 -28.5 67c-13 19.334 -30.167 34.667 -51.5 46s-47.333 17 -78 17
h-82v56h67c34 0 65.667 -5.33301 95 -16s54.833 -27 76.5 -49s38.667 -49.667 51 -83s18.5 -72.666 18.5 -117.999v-208h-352z" />
    <glyph glyph-name="uni0691" unicode="&#x691;" horiz-adv-x="317" arabic-form="isolated" 
d="M116 625l0.000976562 147h37v-94c11.333 10.6719 23.166 19.3389 35.499 26c12.333 6.66699 24.833 10 37.5 10c26 0 43.5 -7.16699 52.5 -21.5c9 -14.3359 13.5 -32.1689 13.5 -53.5v-52h-205v36h28c0.666992 0.667969 1 1.33496 1 2zM253.001 623v16
c0 11.333 -3.33301 20.333 -10 27s-14.667 10 -24 10c-15.334 0 -28.167 -6 -38.5 -18c-10.334 -12 -18.167 -23.667 -23.5 -35h96zM91.001 -178c17.333 0 31.832 2.83398 43.499 8.50098c11.667 5.66602 21 15.333 28 29s12 31.5 15 53.5s4.5 49.667 4.5 83v430h60v-430
c0 -35.333 -2.33301 -67.333 -7 -96s-12.5 -53.334 -23.5 -74.001s-25.333 -36.5 -43 -47.5s-39.5 -16.5 -65.5 -16.5c-14 0 -25.667 0.833008 -35 2.5c-9.33301 1.66504 -16.666 3.83203 -21.999 6.5c-6.66699 2.66699 -12 5.66699 -16 9v59
c10 -5.33301 19.833 -9.5 29.5 -12.5s20.167 -4.5 31.5 -4.5z" />
    <glyph glyph-name="uni0698" unicode="&#x698;" horiz-adv-x="317" arabic-form="isolated" 
d="M195 869h60v-117h-60v117zM269 715h60v-117h-60v117zM120 715h60v-117h-60v117zM91 -178c17.333 0 31.832 2.83398 43.499 8.50098c11.667 5.66602 21 15.333 28 29s12 31.5 15 53.5s4.5 49.667 4.5 83v430h60v-430c0 -35.333 -2.33301 -67.333 -7 -96
s-12.5 -53.334 -23.5 -74.001s-25.333 -36.5 -43 -47.5s-39.5 -16.5 -65.5 -16.5c-14 0 -25.667 0.833008 -35 2.5c-9.33301 1.66504 -16.666 3.83203 -21.999 6.5c-6.66699 2.66699 -12 5.66699 -16 9v59c10 -5.33301 19.833 -9.5 29.5 -12.5s20.167 -4.5 31.5 -4.5z" />
    <glyph glyph-name="uni06A4" unicode="&#x6a4;" horiz-adv-x="1097" arabic-form="isolated" 
d="M793 869h60v-117h-60v117zM867 715h60v-117h-60v117zM718 715h60v-117h-60v117zM978 245c0 62 -14.333 108.667 -43 140s-67 47 -115 47s-86.333 -15.667 -115 -47s-43 -78 -43 -140s14.333 -109.333 43 -142s67 -49 115 -49s86.333 16.333 115 49s43 80 43 142zM598 245
c0 36.667 4.83398 70.001 14.501 100.001c9.66895 30 23.8359 55.833 42.5 77.5c18.668 21.667 41.835 38.5 69.5 50.5c27.667 12 59.5 18 95.5 18s67.833 -6 95.5 -18c27.6699 -12 50.8369 -28.833 69.5 -50.5c18.6709 -21.667 32.8379 -47.5 42.501 -77.5
c9.66699 -30 14.5 -63.333 14.5 -100s-4.5 -70 -13.5 -100s-22.833 -55.833 -41.5 -77.5s-41.834 -38.334 -69.501 -50.001s-60.167 -17.5 -97.5 -17.5h-561c-28.667 0 -55 4.5 -79 13.5s-44.833 22.833 -62.5 41.5s-31.334 42.667 -41.001 72s-14.5 64 -14.5 104v67h54v-68
c0 -61.333 11.833 -105.666 35.5 -132.999s59.5 -41 107.5 -41h414c-21.3359 21.333 -39.1689 48.166 -53.5 80.499c-14.333 32.333 -21.5 68.5 -21.5 108.5z" />
    <glyph glyph-name="uni06A9" unicode="&#x6a9;" horiz-adv-x="884" arabic-form="isolated" 
d="M759 56l0.00195312 164.999c0 34.667 -4 64.5 -12 89.5s-19.167 45.5 -33.5 61.5s-31.333 27.667 -51 35s-40.834 11 -63.501 11h-239v56l240 241h78l-237 -241h153c40.668 0 75.335 -6.83301 104 -20.5c28.667 -13.667 52 -32.167 70 -55.5s31 -50.333 39 -81
s12 -62.667 12 -96v-221h-560c-28.667 0 -55 4.5 -79 13.5s-44.833 22.833 -62.5 41.5s-31.334 42.667 -41.001 72s-14.5 64 -14.5 104v67h54v-68c0 -61.333 11.833 -105.666 35.5 -132.999s59.5 -41 107.5 -41h500z" />
    <glyph glyph-name="uni06AF" unicode="&#x6af;" horiz-adv-x="884" arabic-form="isolated" 
d="M244 474h-79l239 241h81zM759 56l0.00195312 164.999c0 34.667 -4 64.5 -12 89.5s-19.167 45.5 -33.5 61.5s-31.333 27.667 -51 35s-40.834 11 -63.501 11h-239v56l240 241h78l-237 -241h153c40.668 0 75.335 -6.83301 104 -20.5c28.667 -13.667 52 -32.167 70 -55.5
s31 -50.333 39 -81s12 -62.667 12 -96v-221h-560c-28.667 0 -55 4.5 -79 13.5s-44.833 22.833 -62.5 41.5s-31.334 42.667 -41.001 72s-14.5 64 -14.5 104v67h54v-68c0 -61.333 11.833 -105.666 35.5 -132.999s59.5 -41 107.5 -41h500z" />
    <glyph glyph-name="uni06BA" unicode="&#x6ba;" horiz-adv-x="837" arabic-form="isolated" 
d="M373 -238c-105.333 0 -187.167 35.998 -245.5 107.998s-87.5 179.667 -87.5 323v87h60v-87c0 -60.667 5 -114.167 15 -160.5s25.833 -85.166 47.5 -116.499s49.667 -55 84 -71s75.833 -24 124.5 -24c97.334 0 171.834 30.833 223.5 92.5
c51.667 61.667 77.5 154.834 77.5 279.501v108h60v-109c0 -51.333 -5.83301 -102.5 -17.5 -153.5s-31.167 -97 -58.5 -138c-27.334 -41 -64.167 -74.333 -110.5 -100s-103.833 -38.5 -172.5 -38.5z" />
    <glyph glyph-name="uni06BE" unicode="&#x6be;" horiz-adv-x="859" arabic-form="isolated" 
d="M94 -64l-0.000976562 -18.001h-59v24c0 42.667 14.833 72.334 44.5 89.001s69.834 25 120.501 25h87c-15.333 15.333 -28.166 34.333 -38.499 57s-15.5 49 -15.5 79c0 54 13.5 96 40.5 126s60.5 46.333 100.5 49c19.334 35.333 46.167 64.833 80.5 88.5
s73.166 35.5 116.499 35.5c38.667 0 72 -6 100 -18s51.167 -29 69.5 -51s31.833 -48.5 40.5 -79.5s13 -65.5 13 -103.5v-239h-594c-38.667 -0 -66 -4.16699 -82 -12.5s-24 -25.5 -24 -51.5zM538.999 191.999c0 -30 -5.16797 -56.333 -15.501 -79
c-10.334 -22.667 -23.501 -41.667 -39.5 -57h250v183c0 66.667 -14.667 116 -44 148s-69 48 -119 48c-30 0 -56.167 -7.83301 -78.5 -23.5s-40.166 -33.167 -53.499 -52.5c30 -10.667 54.167 -30.167 72.5 -58.5s27.5 -64.5 27.5 -108.5zM385.998 311.999
c-28.667 0 -51.834 -9.16699 -69.5 -27.5c-17.667 -18.333 -26.5 -49.166 -26.5 -92.499c0 -21.333 2.83301 -39.833 8.5 -55.5s13.167 -28.5 22.5 -38.5c9.33398 -10 19.667 -17.5 31 -22.5c11.334 -5 22.667 -7.5 34 -7.5c11.335 0 22.668 2.5 34 7.5
c11.335 5 21.668 12.5 31 22.5c9.33301 10 16.833 22.833 22.5 38.5s8.5 34.167 8.5 55.5c0 43.333 -8.83301 74.166 -26.5 92.499s-40.834 27.5 -69.5 27.5z" />
    <glyph glyph-name="uni06C1" unicode="&#x6c1;" horiz-adv-x="554" arabic-form="isolated" 
d="M277 -11c-37.333 0 -69.834 6.66699 -97.501 20s-50.834 31.333 -69.501 54s-32.5 49.167 -41.5 79.5s-13.5 62.833 -13.5 97.5s4.5 67.167 13.5 97.5s22.833 56.833 41.5 79.5s41.834 40.667 69.501 54s60.167 20 97.5 20s69.833 -6.66699 97.5 -20
s50.834 -31.333 69.501 -54s32.5 -49.167 41.5 -79.5s13.5 -62.833 13.5 -97.5s-4.5 -67.167 -13.5 -97.5s-22.833 -56.833 -41.5 -79.5s-41.834 -40.667 -69.5 -54c-27.667 -13.333 -60.167 -20 -97.5 -20zM276.999 52c54.667 0 94.5 17 119.5 51s37.5 79.667 37.5 137
c0 56.667 -12.5 102.334 -37.5 137.001s-64.833 52 -119.5 52s-94.5 -17.333 -119.5 -52s-37.5 -80.334 -37.5 -137.001c0 -57.333 12.5 -103 37.5 -137s64.833 -51 119.5 -51z" />
    <glyph glyph-name="uni06C2.fina" unicode="&#x6c2;" horiz-adv-x="608" 
d="M208 661h40v4c-4.66699 6 -9.33398 13.833 -14.001 23.5s-7 20.834 -7 33.5c0 19.333 6.16699 36.333 18.5 51s29.833 22 52.5 22c18 0 33.833 -5.83301 47.5 -17.5s20.834 -29.5 21.501 -53.5h-27c0 13.333 -3.83301 24 -11.5 32c-7.66797 8 -17.835 12 -30.5 12
c-12.667 0 -22.834 -4.16699 -30.5 -12.5c-7.66699 -8.33887 -11.5 -21.1719 -11.5 -38.5c0 -17.333 5 -31 15 -41s21 -15 33 -15h68v-27h-164v27zM55 241c0 27.333 3.50098 54.499 10.501 81.499s18.333 51.333 34 73s36 39.334 61 53.001s55.5 20.5 91.5 20.5h199v-285
c0 -41.333 9.5 -73 28.5 -95s45.5 -33 79.5 -33h28c5.33301 0 10.166 -0.666992 14.499 -2s6.5 -5.33301 6.5 -12v-31c0 -7.33301 -7 -11 -21 -11h-28c-23.333 0 -45.333 3.5 -66 10.5s-38.5 18 -53.5 33s-26.833 34.167 -35.5 57.5s-13 51 -13 83v229h-139
c-44 0 -77.833 -15.5 -101.5 -46.5s-35.5 -72.833 -35.5 -125.5c0 -4 -0.166992 -12.5 -0.5 -25.5s-0.5 -26.167 -0.5 -39.5v-53h-59v118z" />
    <glyph glyph-name="uni06C3.fina" unicode="&#x6c3;" horiz-adv-x="591" 
d="M335 715h60v-117h-60v117zM186 715h60v-117h-60v117zM560 0c-38 0 -70.501 11.1689 -97.501 33.502s-45.167 52.833 -54.5 91.5c-6.66699 -11.333 -15.167 -22.333 -25.5 -33s-22.333 -20.167 -36 -28.5s-28.334 -15.166 -44 -20.499c-15.667 -5.33301 -32.5 -8 -50.5 -8
c-25.333 0 -49.833 4.5 -73.5 13.5s-44.667 22.333 -63 40s-33 39.667 -44 66s-16.5 56.833 -16.5 91.5c0 27.333 3.33301 54.666 10 81.999s17.667 51.833 33 73.5s36 39.167 62 52.5s58 20 96 20h199v-275c0 -21.333 2.66699 -40.833 8 -58.5s12.333 -32.834 21 -45.501
s18.834 -22.334 30.501 -29.001c11.6709 -6.66699 23.8379 -10 36.5 -10h40c5.33301 0 9.33301 -0.666992 12 -2s4 -5.33301 4 -12v-31c0 -3.33301 -0.833008 -6 -2.5 -8s-6.16699 -3 -13.5 -3h-31zM251.999 94.002c16.667 0 33.667 2.83203 51 8.49902
c17.334 5.66699 32.667 14.5 46 26.5s24.333 27.333 33 46s13 41 13 67v176h-139c-20 0 -38.5 -4 -55.5 -12s-31.5 -19.333 -43.5 -34s-21.5 -32.667 -28.5 -54s-10.5 -45.333 -10.5 -72s4.16699 -49.667 12.5 -69s19 -35.166 32 -47.499s27.333 -21.333 43 -27
s31.167 -8.5 46.5 -8.5z" />
    <glyph glyph-name="uni06CC" unicode="&#x6cc;" horiz-adv-x="771" arabic-form="isolated" 
d="M389 -177c40.667 0 77.501 3.00391 110.501 9.00391s61 15.167 84 27.5s40.667 27.666 53 45.999s18.5 39.5 18.5 63.5c0 12.667 -2.5 23.667 -7.5 33s-13.833 18.166 -26.5 26.499s-29.667 16.666 -51 24.999s-48 17.833 -80 28.5c-54 17.333 -94.667 42.333 -122 75
s-41 70.667 -41 114c0 25.333 3.33301 51 10 77s17.667 49.667 33 71c15.334 21.334 35.167 38.667 59.5 51.999c24.333 13.333 54.5 20 90.5 20c52.668 0 95.335 -18 128.001 -54c32.6689 -36 51.3359 -87.333 56 -154h-53c-0.666992 20 -4.33398 39.167 -11.001 57.5
s-15.667 34.333 -27 48s-25 24.5 -41 32.5s-33.333 12 -52 12c-42.667 0 -75.334 -13.833 -98 -41.5c-22.667 -27.667 -34 -67.834 -34 -120.5c0 -20 4 -37.167 12 -51.5s19.333 -27 34 -38s32.667 -21 54 -30s45 -17.833 71 -26.5c28.6689 -9.33301 52.8359 -19 72.5 -29
c19.6689 -10 35.8359 -21 48.5 -33c12.6719 -12 21.8389 -25.5 27.5 -40.5c5.66699 -15 8.5 -32.833 8.5 -53.5c0 -27.333 -6 -53.333 -18 -78s-31 -46.667 -57 -66s-59.833 -34.666 -101.5 -46c-41.667 -11.333 -92.167 -17 -151.5 -17c-63.333 0 -117 8.16699 -161 24.5
s-79.667 40 -107 71s-47.333 68.667 -60 113s-19.334 94.166 -20.001 149.499h58c0 -58.667 6.83301 -107.167 20.5 -145.5s33.167 -68.666 58.5 -90.999s56 -38 92 -47s76 -13.5 120 -13.5z" />
    <glyph glyph-name="uni06D2" unicode="&#x6d2;" horiz-adv-x="887" arabic-form="isolated" 
d="M285 411l174 0.00195312v-56h-175c-58 0 -99.333 -10.333 -124 -31s-37 -54 -37 -100v-168h510c48 0 83.5 13.167 106.5 39.5s34.5 71.166 34.5 134.499v69h58v-68c0 -41.333 -5 -76.5 -15 -105.5s-23.833 -52.833 -41.5 -71.5s-38.667 -32.334 -63 -41.001
s-50.833 -13 -79.5 -13h-571v224c0 28.667 4.16699 54.5 12.5 77.5s21.5 42.667 39.5 59s41 28.833 69 37.5s62 13 102 13z" />
    <glyph glyph-name="uni06D3" unicode="&#x6d3;" horiz-adv-x="887" arabic-form="isolated" 
d="M315 617l39.999 -0.000976562v4c-4.66797 6 -9.33496 13.833 -14 23.5c-4.66699 9.67188 -7 20.8389 -7 33.501c0 19.333 6.16699 36.333 18.5 51s29.833 22 52.5 22c18 0 33.833 -5.83301 47.5 -17.5s20.834 -29.5 21.501 -53.5h-27c0 13.333 -3.83301 24 -11.5 32
c-7.66797 8 -17.835 12 -30.5 12c-12.668 0 -22.835 -4.16699 -30.5 -12.5c-7.66699 -8.33594 -11.5 -21.1689 -11.5 -38.5c0 -17.333 5 -31 15 -41s21 -15 33 -15h68v-27h-164v27zM284.999 410.999l174 0.00195312v-56h-175c-58 0 -99.333 -10.333 -124 -31
s-37 -54 -37 -100v-168h510c48 0 83.5 13.167 106.5 39.5s34.5 71.166 34.5 134.499v69h58v-68c0 -41.333 -5 -76.5 -15 -105.5s-23.833 -52.833 -41.5 -71.5s-38.667 -32.334 -63 -41.001s-50.833 -13 -79.5 -13h-571v224c0 28.667 4.16699 54.5 12.5 77.5
s21.5 42.667 39.5 59s41 28.833 69 37.5s62 13 102 13z" />
    <glyph glyph-name="uni06D5.fina" unicode="&#x6d5;" horiz-adv-x="591" 
d="M560 0c-38 0 -70.501 11.1689 -97.501 33.502s-45.167 52.833 -54.5 91.5c-6.66699 -11.333 -15.167 -22.333 -25.5 -33s-22.333 -20.167 -36 -28.5s-28.334 -15.166 -44 -20.499c-15.667 -5.33301 -32.5 -8 -50.5 -8c-25.333 0 -49.833 4.5 -73.5 13.5
s-44.667 22.333 -63 40s-33 39.667 -44 66s-16.5 56.833 -16.5 91.5c0 27.333 3.33301 54.666 10 81.999s17.667 51.833 33 73.5s36 39.167 62 52.5s58 20 96 20h199v-275c0 -21.333 2.66699 -40.833 8 -58.5s12.333 -32.834 21 -45.501s18.834 -22.334 30.501 -29.001
c11.6709 -6.66699 23.8379 -10 36.5 -10h40c5.33301 0 9.33301 -0.666992 12 -2s4 -5.33301 4 -12v-31c0 -3.33301 -0.833008 -6 -2.5 -8s-6.16699 -3 -13.5 -3h-31zM251.999 94.002c16.667 0 33.667 2.83203 51 8.49902c17.334 5.66699 32.667 14.5 46 26.5
s24.333 27.333 33 46s13 41 13 67v176h-139c-20 0 -38.5 -4 -55.5 -12s-31.5 -19.333 -43.5 -34s-21.5 -32.667 -28.5 -54s-10.5 -45.333 -10.5 -72s4.16699 -49.667 12.5 -69s19 -35.166 32 -47.499s27.333 -21.333 43 -27s31.167 -8.5 46.5 -8.5z" />
    <glyph glyph-name="uniFB51" unicode="&#x671;" horiz-adv-x="242" arabic-form="final" 
d="M149 947c21.333 0 37 -7.16699 47 -21.5c10 -14.3369 15 -32.1699 15 -53.5v-52h-201v29h29c4.66699 12 11.167 23.833 19.5 35.5s17.333 22.167 27 31.5s20 16.833 31 22.5s21.833 8.5 32.5 8.5zM180 849v23c0 14 -3.66699 24.5 -11 31.5s-16.333 10.5 -27 10.5
c-8 0 -15.5 -2 -22.5 -6s-13.5 -9.16699 -19.5 -15.5s-11.5 -13.333 -16.5 -21s-9.16699 -15.167 -12.5 -22.5h109zM237 56c5.33301 0 10.167 -0.666992 14.5 -2s6.5 -5.33301 6.5 -12v-31c0 -7.33301 -7 -11 -21 -11h-162v715h60v-659h102z" />
    <glyph glyph-name="uniFB57" unicode="&#x67e;" horiz-adv-x="1056" arabic-form="final" 
d="M434 -68h39v-76h-39v76zM531 -68h38v-76h-38v76zM483 -167h38v-77h-38v77zM734 56c30 0 53.6709 9.83105 71.0039 29.498s26 51.5 26 95.5v245h59v-216c0 -20 3.16699 -39.167 9.5 -57.5s15.166 -34.666 26.499 -48.999s25.166 -25.833 41.499 -34.5
s34.166 -13 53.499 -13h35c5.33301 0 9.33301 -0.666992 12 -2s4 -5.33301 4 -12v-31c0 -3.33301 -0.833008 -6 -2.5 -8s-6.16699 -3 -13.5 -3h-35c-16.667 0 -33 2.16699 -49 6.5s-30.667 10.5 -44 18.5s-24.833 17.5 -34.5 28.5s-16.5 23.167 -20.5 36.5
c-13.333 -34 -32.5 -57.5 -57.5 -70.5s-52.5 -19.5 -82.5 -19.5h-474c-28.667 0 -55 4.5 -79 13.5s-44.833 22.833 -62.5 41.5s-31.334 42.667 -41.001 72s-14.5 64 -14.5 104v67h54v-68c0 -61.333 11.833 -105.666 35.5 -132.999s59.5 -41 107.5 -41h475z" />
    <glyph glyph-name="uniFB58" unicode="&#x67e;" horiz-adv-x="347" arabic-form="initial" 
d="M137 -68h39v-76h-39v76zM234 -68h38v-76h-38v76zM186 -167h38v-77h-38v77zM212 56v370h60v-426h-272c-7.33301 0 -11.833 1 -13.5 3s-2.5 4.66699 -2.5 8v31c0 6.66699 1.33301 10.667 4 12s6.66699 2 12 2h212z" />
    <glyph glyph-name="uniFB59" unicode="&#x67e;" horiz-adv-x="475" arabic-form="medial" 
d="M220 -68h39v-76h-39v76zM317 -68h38v-76h-38v76zM269 -167h38v-77h-38v77zM144 0h-144c-7.33301 0 -11.833 1 -13.5 3s-2.5 4.66699 -2.5 8v31c0 6.66699 1.33301 10.667 4 12s6.66699 2 12 2h145c30 0 53.667 9.83301 71 29.5s26 51.5 26 95.5v245h59v-210
c0 -20 3 -39.667 9 -59s14.833 -36.5 26.5 -51.5s25.5 -27 41.5 -36s34 -13.5 54 -13.5h43c5.33301 0 9.33301 -0.666992 12 -2s4 -5.33301 4 -12v-31c0 -3.33301 -0.833008 -6 -2.5 -8s-6.16699 -3 -13.5 -3h-43c-16.667 0 -33 2.16699 -49 6.5s-30.667 10.5 -44 18.5
s-24.833 17.5 -34.5 28.5s-16.5 23.167 -20.5 36.5c-13.333 -34 -32.5 -57.5 -57.5 -70.5s-52.5 -19.5 -82.5 -19.5z" />
    <glyph glyph-name="uniFB67" unicode="&#x679;" horiz-adv-x="1056" arabic-form="final" 
d="M734 56c30 0 53.6709 9.83105 71.0039 29.498s26 51.5 26 95.5v245h59v-216c0 -20 3.16699 -39.167 9.5 -57.5s15.166 -34.666 26.499 -48.999s25.166 -25.833 41.499 -34.5s34.166 -13 53.499 -13h35c5.33301 0 9.33301 -0.666992 12 -2s4 -5.33301 4 -12v-31
c0 -3.33301 -0.833008 -6 -2.5 -8s-6.16699 -3 -13.5 -3h-35c-16.667 0 -33 2.16699 -49 6.5s-30.667 10.5 -44 18.5s-24.833 17.5 -34.5 28.5s-16.5 23.167 -20.5 36.5c-13.333 -34 -32.5 -57.5 -57.5 -70.5s-52.5 -19.5 -82.5 -19.5h-474c-28.667 0 -55 4.5 -79 13.5
s-44.833 22.833 -62.5 41.5s-31.334 42.667 -41.001 72s-14.5 64 -14.5 104v67h54v-68c0 -61.333 11.833 -105.666 35.5 -132.999s59.5 -41 107.5 -41h475zM364.004 463.998v146.998h37v-94c11.335 10.6709 23.168 19.3379 35.5 26c12.333 6.66699 24.833 10 37.5 10
c26 0 43.5 -7.16699 52.5 -21.5s13.5 -32.166 13.5 -53.499v-52h-205v36h28c0.666992 0.666992 1 1.33398 1 2.00098zM501.004 461.996l-0.00195312 16c0 11.333 -3.33301 20.333 -10 27s-14.667 10 -24 10c-15.333 0 -28.166 -6 -38.499 -18s-18.166 -23.667 -23.499 -35
h96z" />
    <glyph glyph-name="uniFB68" unicode="&#x679;" horiz-adv-x="347" arabic-form="initial" 
d="M95 625l0.000976562 147h37v-94c11.333 10.6719 23.166 19.3389 35.499 26c12.333 6.66699 24.833 10 37.5 10c26 0 43.5 -7.16699 52.5 -21.5c9 -14.3359 13.5 -32.1689 13.5 -53.5v-52h-205v36h28c0.666992 0.667969 1 1.33496 1 2zM232.001 623l-0.000976562 16
c0 11.333 -3.33301 20.333 -10 27s-14.667 10 -24 10c-15.333 0 -28.166 -6 -38.499 -18c-10.334 -12 -18.167 -23.667 -23.5 -35h96zM212 56v370h60v-426h-272c-7.33301 0 -11.833 1 -13.5 3s-2.5 4.66699 -2.5 8v31c0 6.66699 1.33301 10.667 4 12s6.66699 2 12 2h212z
" />
    <glyph glyph-name="uniFB69" unicode="&#x679;" horiz-adv-x="475" arabic-form="medial" 
d="M167 623l0.000976562 147h37v-94c11.333 10.6719 23.166 19.3389 35.499 26c12.333 6.66699 24.833 10 37.5 10c26 0 43.5 -7.16699 52.5 -21.5c9 -14.3359 13.5 -32.1689 13.5 -53.5v-52h-205v36h28c0.666992 0.675781 1 1.34277 1 2zM304.001 621v16
c0 11.333 -3.33301 20.333 -10 27s-14.667 10 -24 10c-15.334 0 -28.167 -6 -38.5 -18c-10.334 -12 -18.167 -23.667 -23.5 -35h96zM144.001 0h-144c-7.33301 0 -11.833 1 -13.5 3s-2.5 4.66699 -2.5 8v31c0 6.66699 1.33301 10.667 4 12s6.66699 2 12 2h145
c30 0 53.667 9.83301 71 29.5s26 51.5 26 95.5v245h59v-210c0 -20 3 -39.667 9 -59s14.833 -36.5 26.5 -51.5s25.5 -27 41.5 -36s34 -13.5 54 -13.5h43c5.33301 0 9.33301 -0.666992 12 -2s4 -5.33301 4 -12v-31c0 -3.33301 -0.833008 -6 -2.5 -8s-6.16699 -3 -13.5 -3h-43
c-16.667 0 -33 2.16699 -49 6.5s-30.667 10.5 -44 18.5s-24.833 17.5 -34.5 28.5s-16.5 23.167 -20.5 36.5c-13.333 -34 -32.5 -57.5 -57.5 -70.5s-52.5 -19.5 -82.5 -19.5z" />
    <glyph glyph-name="uniFB6B" unicode="&#x6a4;" horiz-adv-x="1133" arabic-form="final" 
d="M799 869h60v-117h-60v117zM873 715h60v-117h-60v117zM724 715h60v-117h-60v117zM979 245c0 62 -14.333 108.667 -43 140s-67 47 -115 47s-86.333 -15.667 -115 -47s-43 -78 -43 -140s14.333 -109.333 43 -142s67 -49 115 -49s86.333 16.333 115 49s43 80 43 142zM1133 56
c5.33301 0 9.33203 -0.667969 11.999 -2.00098s4 -5.33301 4 -12v-31c0 -3.33301 -0.833008 -6 -2.5 -8s-6.16699 -3 -13.5 -3h-874c-28.667 0 -55 4.5 -79 13.5s-44.833 22.833 -62.5 41.5s-31.334 42.667 -41.001 72s-14.5 64 -14.5 104v67h54v-68
c0 -61.333 11.833 -105.666 35.5 -132.999s59.5 -41 107.5 -41h415c-21.3359 21.333 -39.1689 48.166 -53.5 80.499c-14.333 32.333 -21.5 68.5 -21.5 108.5c0 36.667 4.83301 70 14.5 100c9.66895 30 23.8359 55.833 42.5 77.5c18.668 21.667 41.835 38.5 69.5 50.5
c27.667 12 59.5 18 95.5 18s67.833 -6 95.5 -18c27.6699 -12 50.8369 -28.833 69.5 -50.5c18.6748 -21.667 32.8418 -47.5 42.501 -77.5c9.66699 -30 14.5 -63.333 14.5 -100c0 -40 -7.16699 -76.167 -21.5 -108.5c-14.3369 -32.333 -32.1699 -59.166 -53.499 -80.499h165z
" />
    <glyph glyph-name="uniFB6C" unicode="&#x6a4;" horiz-adv-x="605" arabic-form="initial" 
d="M311 869h60v-117h-60v117zM385 715h60v-117h-60v117zM236 715h60v-117h-60v117zM486 245c0 62 -14.333 108.667 -43 140s-67 47 -115 47s-86.333 -15.667 -115 -47s-43 -78 -43 -140s14.333 -109.333 43 -142s67 -49 115 -49s86.333 16.333 115 49s43 80 43 142zM0 0
c-7.33301 0 -11.8379 1.00195 -13.5049 3.00195s-2.5 4.66699 -2.5 8v31c0 6.66699 1.33301 10.667 4 12s6.66699 2 12 2h181c-21.333 21.333 -39.166 48.166 -53.499 80.499s-21.5 68.5 -21.5 108.5c0 36.667 4.83301 70 14.5 100s23.834 55.833 42.501 77.5
s41.834 38.5 69.501 50.5s59.5 18 95.5 18s67.833 -6 95.5 -18s50.834 -28.833 69.501 -50.5s32.834 -47.5 42.501 -77.5s14.5 -63.333 14.5 -100s-4.5 -70 -13.5 -100s-22.833 -55.833 -41.5 -77.5s-41.834 -38.334 -69.5 -50.001
c-27.667 -11.667 -60.167 -17.5 -97.5 -17.5h-328z" />
    <glyph glyph-name="uniFB6D" unicode="&#x6a4;" horiz-adv-x="614" arabic-form="medial" 
d="M280 869h60v-117h-60v117zM354 715h60v-117h-60v117zM205 715h60v-117h-60v117zM460 245c0 62 -14.333 108.667 -43 140s-67 47 -115 47s-86.333 -15.667 -115 -47s-43 -78 -43 -140s14.333 -109.333 43 -142s67 -49 115 -49s86.333 16.333 115 49s43 80 43 142zM0 0
c-7.33301 0 -11.8389 1 -13.5059 3s-2.5 4.66699 -2.5 8v31c0 6.66699 1.33301 10.667 4 12s6.66699 2 12 2h155c-21.333 21.333 -39.166 48.166 -53.499 80.499s-21.5 68.5 -21.5 108.5c0 36.667 4.83301 70 14.5 100s23.834 55.833 42.501 77.5s41.834 38.5 69.501 50.5
s59.5 18 95.5 18s67.833 -6 95.5 -18s50.834 -28.833 69.501 -50.5s32.834 -47.5 42.501 -77.5s14.5 -63.333 14.5 -100c0 -40 -7.16699 -76.167 -21.5 -108.5s-32.166 -59.166 -53.499 -80.499h165c5.33301 0 9.33301 -0.666992 12 -2s4 -5.33301 4 -12v-31
c0 -3.33301 -0.833008 -6 -2.5 -8s-6.16699 -3 -13.5 -3h-614z" />
    <glyph glyph-name="uniFB7B" unicode="&#x686;" horiz-adv-x="754" arabic-form="final" 
d="M269 -60h39v-76h-39v76zM366 -60h38v-76h-38v76zM318 -159h38v-77h-38v77zM343 491c78 0 136.498 -23.335 175.498 -70.002s58.5 -110.334 58.5 -191v-39c0 -42 11 -75 33 -99s51 -36 87 -36h57c5.33301 0 9.33301 -0.666992 12 -2s4 -5.33301 4 -12v-31
c0 -3.33301 -0.833008 -6 -2.5 -8s-6.16699 -3 -13.5 -3h-58c-9.33594 0 -20.1689 1.5 -32.5 4.5c-12.333 3 -24.333 7.5 -36 13.5s-22.167 13.167 -31.5 21.5c-9.33594 8.33301 -15.6689 17.5 -19 27.5c-0.666992 -7.33301 -3 -17.166 -7 -29.499s-11 -24.833 -21 -37.5
h-295c-53.333 0 -93.333 -9.33301 -120 -28s-40 -46 -40 -82c0 -22.667 3.66699 -44.334 11 -65.001s18.333 -41.667 33 -63h-58c-13.333 16.667 -24.166 36.5 -32.499 59.5s-12.5 46.833 -12.5 71.5c0 22.667 4 44 12 64s20.667 37.333 38 52s39.833 26.167 67.5 34.5
s61.5 12.5 101.5 12.5h263v183c0 61.333 -15.667 109.333 -47 144s-73.666 52 -126.999 52c-23.333 0 -45.5 -3.66699 -66.5 -11s-40 -18.166 -57 -32.499s-31 -31.666 -42 -51.999s-17.833 -43.5 -20.5 -69.5h-57c7.33301 68 32 121.833 74 161.5s98.333 59.5 169 59.5z
" />
    <glyph glyph-name="uniFB7C" unicode="&#x686;" horiz-adv-x="728" arabic-form="initial" 
d="M285 -60h39v-76h-39v76zM382 -60h38v-76h-38v76zM334 -159h38v-77h-38v77zM0 0c-7.33301 0 -11.835 1 -13.502 3s-2.5 4.66699 -2.5 8v31c0 6.66699 1.33301 10.667 4 12s6.66699 2 12 2h592c-1.35156 4 -3.68457 13.5 -7 28.5c-3.33789 15 -6.6709 31.833 -10 50.5
c-3.3418 18.667 -6.6748 37.667 -9.99902 57c-3.33301 19.333 -6 35 -8 47c-10 63.333 -32.333 111 -67 143s-79.667 48 -135 48c-24.667 0 -48.167 -3.5 -70.5 -10.5s-42.5 -17.167 -60.5 -30.5s-32.833 -30 -44.5 -50s-19.5 -43 -23.5 -69h-62
c2.66699 28 10.834 55.333 24.501 82s31.667 50.334 54 71.001s49 37.167 80 49.5s65.167 18.5 102.5 18.5c41.333 0 77.5 -6.16699 108.5 -18.5s57.5 -29.833 79.5 -52.5s39.5 -50 52.5 -82s22.167 -68 27.5 -108c4.67578 -36.667 8.84277 -67 12.5 -91
c3.66699 -24 7 -44.333 10 -61s5.83301 -30.834 8.5 -42.501s5.66699 -23.5 9 -35.5h-663z" />
    <glyph glyph-name="uniFB7D" unicode="&#x686;" horiz-adv-x="787" arabic-form="medial" 
d="M269 -60h39v-76h-39v76zM366 -60h38v-76h-38v76zM318 -159h38v-77h-38v77zM560 56v182.998c0 30.667 -6 58 -18 82s-27.833 44.5 -47.5 61.5s-42.334 30 -68 39c-25.667 9 -52.5 13.5 -80.5 13.5c-25.333 0 -49.5 -4 -72.5 -12s-43.5 -19.167 -61.5 -33.5
s-33 -31.666 -45 -51.999s-19.333 -42.833 -22 -67.5h-58c2.66699 30 11.167 58.333 25.5 85s33 50.167 56 70.5s49.5 36.333 79.5 48s62.667 17.5 98 17.5c38.667 0 74.667 -6 108 -18c33.334 -12 62.334 -29.333 87 -52c24.667 -22.667 44 -50.167 58 -82.5
s21 -68.5 21 -108.5v-45c0 -40 11.333 -71.5 34 -94.5c22.668 -23 51.335 -34.5 86 -34.5h47c5.33301 0 9.33301 -0.666992 12 -2s4 -5.33301 4 -12v-31c0 -3.33301 -0.833008 -6 -2.5 -8s-6.16699 -3 -13.5 -3h-48c-9.33887 0 -20.1719 1.5 -32.5 4.5
c-12.333 3 -24.333 7.5 -36 13.5s-22.167 13.167 -31.5 21.5c-9.34277 8.33301 -15.6758 17.5 -19 27.5c-0.666992 -7.33301 -3 -17.166 -7 -29.499s-11 -24.833 -21 -37.5h-592c-7.33301 0 -11.833 1 -13.5 3s-2.5 4.66699 -2.5 8v31c0 6.66699 1.33301 10.667 4 12
s6.66699 2 12 2h560z" />
    <glyph glyph-name="uniFB89" unicode="&#x688;" horiz-adv-x="633" arabic-form="final" 
d="M148 625l0.000976562 147h37v-94c11.333 10.6719 23.166 19.3389 35.499 26c12.333 6.66699 24.833 10 37.5 10c26 0 43.5 -7.16699 52.5 -21.5c9 -14.3359 13.5 -32.1689 13.5 -53.5v-52h-205v36h28c0.666992 0.667969 1 1.33496 1 2zM285.001 623v16
c0 11.333 -3.33301 20.333 -10 27s-14.667 10 -24 10c-15.334 0 -28.167 -6 -38.5 -18c-10.334 -12 -18.167 -23.667 -23.5 -35h96zM633.001 56c5.33301 0 9.33203 -0.668945 11.999 -2.00195s4 -5.33301 4 -12v-31c0 -3.33301 -0.833008 -6 -2.5 -8s-6.16699 -3 -13.5 -3
h-47c-9.33789 0 -20.1709 1.5 -32.5 4.5c-12.333 3 -24.333 7.5 -36 13.5s-22.167 13.167 -31.5 21.5s-15.666 17.5 -18.999 27.5c-0.666992 -7.33301 -3 -17.166 -7 -29.499s-11 -24.833 -21 -37.5h-324v56h293v152c0 28 -3 54.667 -9 80c-6 25.334 -15.5 47.667 -28.5 67
c-13 19.334 -30.167 34.667 -51.5 46s-47.333 17 -78 17h-82v56h67c34 0 65.667 -5.33301 95 -16s54.833 -27 76.5 -49s38.667 -49.667 51 -83s18.5 -72.666 18.5 -117.999v-23c1.33301 -40 13 -71.5 35 -94.5s50.333 -34.5 85 -34.5h46z" />
    <glyph glyph-name="uniFB8B" unicode="&#x698;" horiz-adv-x="414" arabic-form="final" 
d="M193 869h60v-117h-60v117zM267 715h60v-117h-60v117zM118 715h60v-117h-60v117zM414 56c5.33301 0 9.33105 -0.666016 11.998 -1.99902s4 -5.33301 4 -12v-31c0 -3.33301 -0.833008 -6 -2.5 -8s-6.16699 -3 -13.5 -3h-53c-9.33301 0 -20.166 1.5 -32.499 4.5
s-24.333 7.5 -36 13.5s-22.167 13.167 -31.5 21.5c-9.33398 8.33301 -15.667 17.5 -19 27.5v-71c0 -35.333 -2.33301 -67.333 -7 -96s-12.5 -53.334 -23.5 -74.001s-25.333 -36.5 -43 -47.5s-39.5 -16.5 -65.5 -16.5c-14 0 -25.667 0.833008 -35 2.5
c-9.33301 1.66504 -16.666 3.83203 -21.999 6.5c-6.66699 2.66699 -12 5.66699 -16 9v59c10 -5.33301 19.833 -9.5 29.5 -12.5s20.167 -4.5 31.5 -4.5c17.333 0 31.833 2.83301 43.5 8.5c11.667 5.66602 21 15.333 28 29s12 31.5 15 53.5s4.5 49.667 4.5 83v430h60v-235
c0 -42 11 -75 33 -99s51 -36 87 -36h52z" />
    <glyph glyph-name="uniFB8D" unicode="&#x691;" horiz-adv-x="414" arabic-form="final" 
d="M104 625l0.000976562 147h37v-94c11.333 10.6719 23.166 19.3389 35.499 26c12.333 6.66699 24.833 10 37.5 10c26 0 43.5 -7.16699 52.5 -21.5c9 -14.3359 13.5 -32.1689 13.5 -53.5v-52h-205v36h28c0.666992 0.667969 1 1.33496 1 2zM241.001 623v16
c0 11.333 -3.33301 20.333 -10 27s-14.667 10 -24 10c-15.334 0 -28.167 -6 -38.5 -18c-10.334 -12 -18.167 -23.667 -23.5 -35h96zM414.001 56c5.33301 0 9.33105 -0.666016 11.998 -1.99902s4 -5.33301 4 -12v-31c0 -3.33301 -0.833008 -6 -2.5 -8s-6.16699 -3 -13.5 -3
h-53c-9.33301 0 -20.166 1.5 -32.499 4.5s-24.333 7.5 -36 13.5s-22.167 13.167 -31.5 21.5c-9.33398 8.33301 -15.667 17.5 -19 27.5v-71c0 -35.333 -2.33301 -67.333 -7 -96s-12.5 -53.334 -23.5 -74.001s-25.333 -36.5 -43 -47.5s-39.5 -16.5 -65.5 -16.5
c-14 0 -25.667 0.833008 -35 2.5c-9.33301 1.66504 -16.666 3.83203 -21.999 6.5c-6.66699 2.66699 -12 5.66699 -16 9v59c10 -5.33301 19.833 -9.5 29.5 -12.5s20.167 -4.5 31.5 -4.5c17.333 0 31.833 2.83301 43.5 8.5c11.667 5.66602 21 15.333 28 29s12 31.5 15 53.5
s4.5 49.667 4.5 83v430h60v-235c0 -42 11 -75 33 -99s51 -36 87 -36h52z" />
    <glyph glyph-name="uniFB8F" unicode="&#x6a9;" horiz-adv-x="990" arabic-form="final" 
d="M761 56l0.00195312 164.998c0 34.667 -4 64.5 -12 89.5s-19.167 45.5 -33.5 61.5s-31.333 27.667 -51 35s-40.834 11 -63.501 11h-239v56l240 241h78l-237 -241h153c40.668 0 75.335 -6.83301 104 -20.5c28.667 -13.667 52 -32.167 70 -55.5s31 -50.333 39 -81
s12 -62.667 12 -96v-30c0 -42 11 -75 33 -99s51 -36 87 -36h49c5.33301 0 9.33301 -0.666992 12 -2s4 -5.33301 4 -12v-31c0 -3.33301 -0.833008 -6 -2.5 -8s-6.16699 -3 -13.5 -3h-50c-9.34082 0 -20.1738 1.5 -32.5 4.5c-12.333 3 -24.333 7.5 -36 13.5
s-22.167 13.167 -31.5 21.5c-9.33984 8.33301 -15.6729 17.5 -19 27.5c-0.666992 -7.33301 -3 -17.166 -7 -29.499s-11 -24.833 -21 -37.5h-534c-28.667 0 -55 4.5 -79 13.5s-44.833 22.833 -62.5 41.5s-31.334 42.667 -41.001 72s-14.5 64 -14.5 104v67h54v-68
c0 -61.333 11.833 -105.666 35.5 -132.999s59.5 -41 107.5 -41h502z" />
    <glyph glyph-name="uniFB90" unicode="&#x6a9;" horiz-adv-x="646" arabic-form="initial" 
d="M0 0c-7.33301 0 -11.834 1 -13.501 3s-2.5 4.66699 -2.5 8v31c0 6.66699 1.33301 10.667 4 12s6.66699 2 12 2h521v165c0 34.667 -4 64.5 -12 89.5s-19.167 45.5 -33.5 61.5s-31.333 27.667 -51 35s-40.834 11 -63.5 11h-288v56l240 241h78l-237 -241h202
c40.667 0 75.334 -6.83301 104.001 -20.5s52 -32.167 70 -55.5s31 -50.333 39 -81s12 -62.667 12 -96v-221h-581z" />
    <glyph glyph-name="uniFB91" unicode="&#x6a9;" horiz-adv-x="755" arabic-form="medial" 
d="M755 56c5.33301 0 9.33301 -0.667969 12 -2.00098s4 -5.33301 4 -12v-31c0 -3.33301 -0.833008 -6 -2.5 -8s-6.16699 -3 -13.5 -3h-50c-9.33887 0 -20.1719 1.5 -32.5 4.5c-12.333 3 -24.333 7.5 -36 13.5s-22.167 13.167 -31.5 21.5
c-9.33496 8.33301 -15.668 17.5 -19 27.5c-0.666992 -7.33301 -3 -17.166 -7 -29.499s-11 -24.833 -21 -37.5h-553c-14 0 -21 3.66699 -21 11v31c0 6.66699 2.16699 10.667 6.5 12s9.16602 2 14.499 2h521v165c0 34.667 -4 64.5 -12 89.5s-19.167 45.5 -33.5 61.5
s-31.333 27.667 -51 35s-40.834 11 -63.5 11h-288v56l240 241h78l-237 -241h202c40.667 0 75.334 -6.83301 104.001 -20.5s52 -32.167 70 -55.5s31 -50.333 39 -81s12 -62.667 12 -96v-30c0 -42 11 -75 33 -99s51 -36 87 -36h49z" />
    <glyph glyph-name="uniFB93" unicode="&#x6af;" horiz-adv-x="990" arabic-form="final" 
d="M256 474h-79l239 241h81zM761 56l0.00195312 164.998c0 34.667 -4 64.5 -12 89.5s-19.167 45.5 -33.5 61.5s-31.333 27.667 -51 35s-40.834 11 -63.501 11h-239v56l240 241h78l-237 -241h153c40.668 0 75.335 -6.83301 104 -20.5c28.667 -13.667 52 -32.167 70 -55.5
s31 -50.333 39 -81s12 -62.667 12 -96v-30c0 -42 11 -75 33 -99s51 -36 87 -36h49c5.33301 0 9.33301 -0.666992 12 -2s4 -5.33301 4 -12v-31c0 -3.33301 -0.833008 -6 -2.5 -8s-6.16699 -3 -13.5 -3h-50c-9.34082 0 -20.1738 1.5 -32.5 4.5c-12.333 3 -24.333 7.5 -36 13.5
s-22.167 13.167 -31.5 21.5c-9.33984 8.33301 -15.6729 17.5 -19 27.5c-0.666992 -7.33301 -3 -17.166 -7 -29.499s-11 -24.833 -21 -37.5h-534c-28.667 0 -55 4.5 -79 13.5s-44.833 22.833 -62.5 41.5s-31.334 42.667 -41.001 72s-14.5 64 -14.5 104v67h54v-68
c0 -61.333 11.833 -105.666 35.5 -132.999s59.5 -41 107.5 -41h502z" />
    <glyph glyph-name="uniFB94" unicode="&#x6af;" horiz-adv-x="792" arabic-form="initial" 
d="M100 474h-79l239 241h81zM0 0c-7.33301 0 -11.833 1 -13.5 3s-2.5 4.66699 -2.5 8v31c0 6.66699 1.33301 10.667 4 12s6.66699 2 12 2h667v165c0 34.667 -4 64.5 -12 89.5s-19.167 45.5 -33.5 61.5s-31.333 27.667 -51 35s-40.834 11 -63.501 11h-288v56l240 241h78
l-237 -241h202c40.668 0 75.335 -6.83301 104.001 -20.5c28.667 -13.667 52 -32.167 70 -55.5s31 -50.333 39 -81s12 -62.667 12 -96v-221h-727z" />
    <glyph glyph-name="uniFB95" unicode="&#x6af;" horiz-adv-x="899" arabic-form="medial" 
d="M899 56c5.33301 0 9.33398 -0.667969 12.001 -2.00098s4 -5.33301 4 -12v-31c0 -3.33301 -0.833008 -6 -2.5 -8s-6.16699 -3 -13.5 -3h-50c-9.33984 0 -20.1729 1.5 -32.5 4.5c-12.333 3 -24.333 7.5 -36 13.5s-22.167 13.167 -31.5 21.5
c-9.33398 8.33301 -15.667 17.5 -19 27.5c-0.666992 -7.33301 -3 -17.166 -7 -29.499s-11 -24.833 -21 -37.5h-697c-14 0 -21 3.66699 -21 11v31c0 6.66699 2.16699 10.667 6.5 12s9.16602 2 14.499 2h665v165c0 34.667 -4 64.5 -12 89.5s-19.167 45.5 -33.5 61.5
s-31.333 27.667 -51 35s-40.834 11 -63.501 11h-288v56l240 241h78l-237 -241h202c40.668 0 75.335 -6.83301 104.001 -20.5c28.667 -13.667 52 -32.167 70 -55.5s31 -50.333 39 -81s12 -62.667 12 -96v-30c0 -42 11 -75 33 -99s51 -36 87 -36h49zM104.001 473.999h-79
l239 241h81z" />
    <glyph glyph-name="uniFB9F" unicode="&#x6ba;" horiz-adv-x="899" arabic-form="final" 
d="M373 -238c-105.333 0 -187.167 36.0039 -245.5 108.004s-87.5 179.667 -87.5 323v87h60v-87c0 -60.667 5 -114.167 15 -160.5s25.833 -85.166 47.5 -116.499s49.667 -55 84 -71s75.833 -24 124.5 -24c97.334 0 171.834 30.833 223.5 92.5
c51.667 61.667 77.5 154.834 77.5 279.501v108h60v-85c0 -22.667 2.83301 -43.834 8.5 -63.501s14.167 -36.667 25.5 -51s25 -25.5 41 -33.5s34.667 -12 56 -12h36c5.33301 0 9.33301 -0.666992 12 -2s4 -5.33301 4 -12v-31c0 -3.33301 -0.833008 -6 -2.5 -8
s-6.16699 -3 -13.5 -3h-36c-14.667 0 -29 2.16699 -43 6.5s-27.167 10.166 -39.5 17.499s-23.333 16.166 -33 26.499s-17.5 21.166 -23.5 32.499c-6.66699 -42 -18.167 -82.333 -34.5 -121s-38.5 -72.834 -66.5 -102.501s-62.5 -53.334 -103.5 -71.001
s-89.833 -26.5 -146.5 -26.5z" />
    <glyph glyph-name="uniFBA5" unicode="&#x6c0;" horiz-adv-x="591" arabic-form="final" 
d="M213 662l40.002 -0.000976562v4c-4.66699 6 -9.33398 13.833 -14.001 23.5s-7 20.834 -7 33.5c0 19.333 6.16699 36.333 18.5 51s29.833 22 52.5 22c18 0 33.833 -5.83301 47.5 -17.5s20.834 -29.5 21.501 -53.5h-27c0 13.333 -3.83301 24 -11.5 32
s-17.834 12 -30.501 12c-12.668 0 -22.835 -4.16699 -30.501 -12.5c-7.66699 -8.33594 -11.5 -21.1689 -11.5 -38.499c0 -17.333 5 -31 15 -41s21 -15 33 -15h68v-27h-164v27zM560.002 -0.000976562c-38 0 -70.501 11.1689 -97.501 33.502s-45.167 52.833 -54.5 91.5
c-6.66699 -11.333 -15.167 -22.333 -25.5 -33s-22.333 -20.167 -36 -28.5s-28.334 -15.166 -44 -20.499c-15.667 -5.33301 -32.5 -8 -50.5 -8c-25.333 0 -49.833 4.5 -73.5 13.5s-44.667 22.333 -63 40s-33 39.667 -44 66s-16.5 56.833 -16.5 91.5
c0 27.333 3.33301 54.666 10 81.999s17.667 51.833 33 73.5s36 39.167 62 52.5s58 20 96 20h199v-275c0 -21.333 2.66699 -40.833 8 -58.5s12.333 -32.834 21 -45.501s18.834 -22.334 30.501 -29.001c11.6709 -6.66699 23.8379 -10 36.5 -10h40
c5.33301 0 9.33301 -0.666992 12 -2s4 -5.33301 4 -12v-31c0 -3.33301 -0.833008 -6 -2.5 -8s-6.16699 -3 -13.5 -3h-31zM252.001 94.001c16.667 0 33.667 2.83203 51 8.49902c17.334 5.66699 32.667 14.5 46 26.5s24.333 27.333 33 46s13 41 13 67v176h-139
c-20 0 -38.5 -4 -55.5 -12s-31.5 -19.333 -43.5 -34s-21.5 -32.667 -28.5 -54s-10.5 -45.333 -10.5 -72s4.16699 -49.667 12.5 -69s19 -35.166 32 -47.499s27.333 -21.333 43 -27s31.167 -8.5 46.5 -8.5z" />
    <glyph glyph-name="uniFBA7" unicode="&#x6c1;" horiz-adv-x="592" arabic-form="final" 
d="M55 241c0 27.333 3.50098 54.499 10.501 81.499s18.333 51.333 34 73s36 39.334 61 53.001s55.5 20.5 91.5 20.5h199v-285c0 -41.333 9.5 -73 28.5 -95s45.5 -33 79.5 -33h28c5.33301 0 10.166 -0.666992 14.499 -2s6.5 -5.33301 6.5 -12v-31c0 -7.33301 -7 -11 -21 -11
h-28c-23.333 0 -45.333 3.5 -66 10.5s-38.5 18 -53.5 33s-26.833 34.167 -35.5 57.5s-13 51 -13 83v229h-139c-44 0 -77.833 -15.5 -101.5 -46.5s-35.5 -72.833 -35.5 -125.5c0 -4 -0.166992 -12.5 -0.5 -25.5s-0.5 -26.167 -0.5 -39.5v-53h-59v118z" />
    <glyph glyph-name="uniFBA8" unicode="&#x6c1;" horiz-adv-x="359" arabic-form="initial" 
d="M212 56l0.000976562 370.001h60v-426h-85v-86c0 -24 5.66699 -41.667 17 -53s30 -17 56 -17h24v-56h-24c-34.667 0 -63.834 10.167 -87.501 30.5s-35.5 52.166 -35.5 95.499v86h-137c-7.33301 0 -11.833 1 -13.5 3s-2.5 4.66699 -2.5 8v31c0 6.66699 1.33301 10.667 4 12
s6.66699 2 12 2h212z" />
    <glyph glyph-name="uniFBA9" unicode="&#x6c1;" horiz-adv-x="811" arabic-form="medial" 
d="M76 192c0 54 13.501 96.001 40.501 126.001s60.5 46.333 100.5 49c19.333 35.333 46.166 64.833 80.499 88.5c34.334 23.667 73.167 35.5 116.5 35.5c38.667 0 72 -6 100 -18s51.167 -29 69.5 -51s31.833 -48.5 40.5 -79.5s13 -65.5 13 -103.5v-48
c0 -44.667 11.5 -78.334 34.5 -101.001s51.167 -34 84.5 -34h50c5.33301 0 10.166 -0.666992 14.499 -2s6.5 -5.33301 6.5 -12v-31c0 -7.33301 -7 -11 -21 -11h-51c-10 -0 -21 1.33301 -33 4s-23.5 6.66699 -34.5 12s-21 12 -30 20s-15.833 17.333 -20.5 28v-64h-637
c-7.33301 0 -11.833 1 -13.5 3s-2.5 4.66699 -2.5 8v31c0 6.66699 1.33301 10.667 4 12s6.66699 2 12 2h130c-15.333 15.333 -28.166 34.333 -38.499 57s-15.5 49 -15.5 79zM382.001 192.001c0 -30 -5.16797 -56.333 -15.501 -79s-23.5 -41.667 -39.5 -57h251v183
c0 66.667 -14.833 116 -44.5 148s-69.5 48 -119.5 48c-30 0 -56.167 -7.83301 -78.5 -23.5s-40.166 -33.167 -53.499 -52.5c30 -10.667 54.167 -30.167 72.5 -58.5s27.5 -64.5 27.5 -108.5zM229 312.001c-28.667 0 -51.8301 -9.16699 -69.4971 -27.5
s-26.5 -49.166 -26.5 -92.499c0 -21.333 2.83301 -39.833 8.5 -55.5s13.167 -28.5 22.5 -38.5s19.666 -17.5 30.999 -22.5s22.666 -7.5 33.999 -7.5s22.666 2.5 33.999 7.5c11.334 5 21.667 12.5 31 22.5s16.833 22.833 22.5 38.5s8.5 34.167 8.5 55.5
c0 43.333 -8.83301 74.166 -26.5 92.499s-40.834 27.5 -69.5 27.5z" />
    <glyph glyph-name="uniFBAB" unicode="&#x6be;" horiz-adv-x="968" arabic-form="final" 
d="M539 192c0 -30 -5.16797 -56.333 -15.501 -79c-10.334 -22.667 -23.501 -41.667 -39.5 -57h250v183c0 66.667 -14.667 116 -44 148s-69 48 -119 48c-30 0 -56.167 -7.83301 -78.5 -23.5s-40.166 -33.167 -53.499 -52.5c30 -10.667 54.167 -30.167 72.5 -58.5
s27.5 -64.5 27.5 -108.5zM385.999 312c-28.667 0 -51.833 -9.16699 -69.499 -27.5c-17.667 -18.333 -26.5 -49.166 -26.5 -92.499c0 -21.333 2.83301 -39.833 8.5 -55.5s13.167 -28.5 22.5 -38.5c9.33398 -10 19.667 -17.5 31 -22.5c11.334 -5 22.667 -7.5 34 -7.5
c11.335 0 22.668 2.5 34 7.5c11.335 5 21.668 12.5 31 22.5c9.33301 10 16.833 22.833 22.5 38.5s8.5 34.167 8.5 55.5c0 43.333 -8.83301 74.166 -26.5 92.499c-17.668 18.333 -40.835 27.5 -69.501 27.5zM94 -64v-18h-59v24c0 42.667 14.833 72.334 44.5 89.001
s69.834 25 120.501 25h87c-15.333 15.333 -28.166 34.333 -38.499 57s-15.5 49 -15.5 79c0 54 13.5 96 40.5 126s60.5 46.333 100.5 49c19.334 35.333 46.167 64.833 80.5 88.5s73.166 35.5 116.499 35.5c38.667 0 72 -6 100 -18s51.167 -29 69.5 -51
s31.833 -48.5 40.5 -79.5s13 -65.5 13 -103.5v-48c0 -44.667 11.5 -78.334 34.5 -101.001s51.167 -34 84.5 -34h50c5.33301 0 10.166 -0.666992 14.499 -2s6.5 -5.33301 6.5 -12v-31c0 -7.33301 -7 -11 -21 -11h-51c-10 -0 -21 1.33301 -33 4s-23.5 6.66699 -34.5 12
s-21 12 -30 20s-15.833 17.333 -20.5 28v-64h-594c-38.667 -0 -66 -4.16699 -82 -12.5s-24 -25.5 -24 -51.5z" />
    <glyph glyph-name="uniFBAC" unicode="&#x6be;" horiz-adv-x="697" arabic-form="initial" 
d="M0 0c-7.33301 0 -11.833 1 -13.5 3s-2.5 4.66699 -2.5 8v31c0 6.66699 1.33301 10.667 4 12s6.66699 2 12 2h125c-15.333 15.333 -28.166 34.333 -38.499 57s-15.5 49 -15.5 79c0 54 13.5 96 40.5 126s60.5 46.333 100.5 49c19.333 35.333 46.166 64.833 80.499 88.5
c34.334 23.667 73.167 35.5 116.5 35.5c38.667 0 72 -6 100 -18s51.167 -29 69.5 -51s31.833 -48.5 40.5 -79.5s13 -65.5 13 -103.5v-239h-632zM377 192c0 -30 -5.16797 -56.333 -15.501 -79s-23.5 -41.667 -39.5 -57h250v183c0 66.667 -14.667 116 -44 148s-69 48 -119 48
c-30 0 -56.167 -7.83301 -78.5 -23.5s-40.166 -33.167 -53.499 -52.5c30 -10.667 54.167 -30.167 72.5 -58.5s27.5 -64.5 27.5 -108.5zM223.999 312c-28.667 0 -51.8281 -9.16699 -69.4951 -27.5s-26.5 -49.166 -26.5 -92.499c0 -21.333 2.83301 -39.833 8.5 -55.5
s13.167 -28.5 22.5 -38.5s19.666 -17.5 30.999 -22.5s22.666 -7.5 33.999 -7.5s22.666 2.5 33.999 7.5c11.334 5 21.667 12.5 30.999 22.5c9.33301 10 16.833 22.833 22.5 38.5s8.5 34.167 8.5 55.5c0 43.333 -8.83301 74.166 -26.5 92.499s-40.834 27.5 -69.501 27.5z" />
    <glyph glyph-name="uniFBAD" unicode="&#x6be;" horiz-adv-x="811" arabic-form="medial" 
d="M76 192c0 54 13.501 96.001 40.501 126.001s60.5 46.333 100.5 49c19.333 35.333 46.166 64.833 80.499 88.5c34.334 23.667 73.167 35.5 116.5 35.5c38.667 0 72 -6 100 -18s51.167 -29 69.5 -51s31.833 -48.5 40.5 -79.5s13 -65.5 13 -103.5v-48
c0 -44.667 11.5 -78.334 34.5 -101.001s51.167 -34 84.5 -34h50c5.33301 0 10.166 -0.666992 14.499 -2s6.5 -5.33301 6.5 -12v-31c0 -7.33301 -7 -11 -21 -11h-51c-10 -0 -21 1.33301 -33 4s-23.5 6.66699 -34.5 12s-21 12 -30 20s-15.833 17.333 -20.5 28v-64h-637
c-7.33301 0 -11.833 1 -13.5 3s-2.5 4.66699 -2.5 8v31c0 6.66699 1.33301 10.667 4 12s6.66699 2 12 2h130c-15.333 15.333 -28.166 34.333 -38.499 57s-15.5 49 -15.5 79zM382.001 192.001c0 -30 -5.16797 -56.333 -15.501 -79s-23.5 -41.667 -39.5 -57h251v183
c0 66.667 -14.833 116 -44.5 148s-69.5 48 -119.5 48c-30 0 -56.167 -7.83301 -78.5 -23.5s-40.166 -33.167 -53.499 -52.5c30 -10.667 54.167 -30.167 72.5 -58.5s27.5 -64.5 27.5 -108.5zM229 312.001c-28.667 0 -51.8301 -9.16699 -69.4971 -27.5
s-26.5 -49.166 -26.5 -92.499c0 -21.333 2.83301 -39.833 8.5 -55.5s13.167 -28.5 22.5 -38.5s19.666 -17.5 30.999 -22.5s22.666 -7.5 33.999 -7.5s22.666 2.5 33.999 7.5c11.334 5 21.667 12.5 31 22.5s16.833 22.833 22.5 38.5s8.5 34.167 8.5 55.5
c0 43.333 -8.83301 74.166 -26.5 92.499s-40.834 27.5 -69.5 27.5z" />
    <glyph glyph-name="uniFBAF" unicode="&#x6d2;" horiz-adv-x="887" arabic-form="final" 
d="M285 56l174 0.00195312v-56h-175c-58 0 -99.333 -10.333 -124 -31s-37 -54 -37 -100v-91h510c48 0 83.5 13.167 106.5 39.5s34.5 71.166 34.5 134.499v69h58v-68c0 -41.333 -5 -76.5 -15 -105.5s-23.833 -52.833 -41.5 -71.5s-38.667 -32.334 -63 -41.001
s-50.833 -13 -79.5 -13h-571v147c0 28.667 4.16699 54.5 12.5 77.5s21.5 42.667 39.5 59s41 28.833 69 37.5s62 13 102 13z" />
    <glyph glyph-name="uniFBB1" unicode="&#x6d3;" horiz-adv-x="887" arabic-form="final" 
d="M317 249l39.999 -0.00195312v4c-4.66895 6 -9.33594 13.833 -14 23.5c-4.66699 9.66699 -7 20.834 -7 33.501c0 19.333 6.16699 36.333 18.5 51s29.833 22 52.5 22c18 0 33.833 -5.83301 47.5 -17.5s20.834 -29.5 21.501 -53.5h-27c0 13.333 -3.83301 24 -11.5 32
s-17.834 12 -30.5 12c-12.668 0 -22.835 -4.16699 -30.5 -12.5c-7.66699 -8.33301 -11.5 -21.166 -11.5 -38.499s5 -31 15 -41s21 -15 33 -15h68v-27h-164v27zM284.999 55.998l174 0.00195312v-56h-175c-58 0 -99.333 -10.333 -124 -31s-37 -54 -37 -100v-91h510
c48 0 83.5 13.167 106.5 39.5s34.5 71.166 34.5 134.499v69h58v-68c0 -41.333 -5 -76.5 -15 -105.5s-23.833 -52.833 -41.5 -71.5s-38.667 -32.334 -63 -41.001s-50.833 -13 -79.5 -13h-571v147c0 28.667 4.16699 54.5 12.5 77.5s21.5 42.667 39.5 59s41 28.833 69 37.5
s62 13 102 13z" />
    <glyph glyph-name="uniFBE8" unicode="&#x649;" horiz-adv-x="347" arabic-form="initial" 
d="M212 56v370h60v-426h-272c-7.33301 0 -11.833 1 -13.5 3s-2.5 4.66699 -2.5 8v31c0 6.66699 1.33301 10.667 4 12s6.66699 2 12 2h212z" />
    <glyph glyph-name="uniFBE9" unicode="&#x649;" horiz-adv-x="475" arabic-form="medial" 
d="M144 0h-144c-7.33301 0 -11.833 1 -13.5 3s-2.5 4.66699 -2.5 8v31c0 6.66699 1.33301 10.667 4 12s6.66699 2 12 2h145c30 0 53.667 9.83301 71 29.5s26 51.5 26 95.5v245h59v-210c0 -20 3 -39.667 9 -59s14.833 -36.5 26.5 -51.5s25.5 -27 41.5 -36s34 -13.5 54 -13.5
h43c5.33301 0 9.33301 -0.666992 12 -2s4 -5.33301 4 -12v-31c0 -3.33301 -0.833008 -6 -2.5 -8s-6.16699 -3 -13.5 -3h-43c-16.667 0 -33 2.16699 -49 6.5s-30.667 10.5 -44 18.5s-24.833 17.5 -34.5 28.5s-16.5 23.167 -20.5 36.5c-13.333 -34 -32.5 -57.5 -57.5 -70.5
s-52.5 -19.5 -82.5 -19.5z" />
    <glyph glyph-name="uniFBFD" unicode="&#x6cc;" horiz-adv-x="752" arabic-form="final" 
d="M390 -278c-61.333 0 -113.997 9.33008 -157.997 27.9971c-44 18.666 -80 44.833 -108 78.5s-48.833 74.334 -62.5 122.001s-20.834 100.5 -21.501 158.5h60c0.666992 -51.333 6.66699 -97.166 18 -137.499s29 -74.5 53 -102.5s54.167 -49.5 90.5 -64.5
s79.833 -22.5 130.5 -22.5c34.667 0 67 3.66699 97 11s56 17.833 78 31.5s39.333 29.834 52 48.501s19 39 19 61c0 10 -2.16699 19.167 -6.5 27.5c-4.33496 8.33301 -9.66797 15.333 -16 21c-6.33301 5.66699 -13.5 10 -21.5 13s-15.667 4.5 -23 4.5
c-13.333 0 -29.833 2.66699 -49.5 8s-39.167 14.333 -58.5 27v52c8 -4.66699 18.333 -9 31 -13s26 -7.33301 40 -10s27.833 -4.66699 41.5 -6s25.5 -2 35.5 -2h136c5.33301 0 10.166 -0.666992 14.499 -2s6.5 -5.33301 6.5 -12v-31c0 -7.33301 -7 -11 -21 -11h-88
c8.67188 -10 15.8389 -23.167 21.5 -39.5c5.66699 -16.333 8.5 -31.166 8.5 -44.499c0 -26 -6.83301 -50.833 -20.5 -74.5s-33.334 -44.334 -59.001 -62.001s-57 -31.667 -94 -42s-78.833 -15.5 -125.5 -15.5z" />
    <glyph glyph-name="uniFBFE" unicode="&#x6cc;" horiz-adv-x="347" arabic-form="initial" 
d="M194 -95h60v-117h-60v117zM45 -95h60v-117h-60v117zM212 56v370h60v-426h-272c-7.33301 0 -11.833 1 -13.5 3s-2.5 4.66699 -2.5 8v31c0 6.66699 1.33301 10.667 4 12s6.66699 2 12 2h212z" />
    <glyph glyph-name="uniFBFF" unicode="&#x6cc;" horiz-adv-x="475" arabic-form="medial" 
d="M211 -95h60v-117h-60v117zM62 -95h60v-117h-60v117zM144 0h-144c-7.33301 0 -11.833 1 -13.5 3s-2.5 4.66699 -2.5 8v31c0 6.66699 1.33301 10.667 4 12s6.66699 2 12 2h145c30 0 53.667 9.83301 71 29.5s26 51.5 26 95.5v245h59v-210c0 -20 3 -39.667 9 -59
s14.833 -36.5 26.5 -51.5s25.5 -27 41.5 -36s34 -13.5 54 -13.5h43c5.33301 0 9.33301 -0.666992 12 -2s4 -5.33301 4 -12v-31c0 -3.33301 -0.833008 -6 -2.5 -8s-6.16699 -3 -13.5 -3h-43c-16.667 0 -33 2.16699 -49 6.5s-30.667 10.5 -44 18.5s-24.833 17.5 -34.5 28.5
s-16.5 23.167 -20.5 36.5c-13.333 -34 -32.5 -57.5 -57.5 -70.5s-52.5 -19.5 -82.5 -19.5z" />
    <glyph glyph-name="uniFC31" unicode="&#xfc31;" horiz-adv-x="1224" arabic-form="isolated" 
d="M390 -278c-61.333 0 -114.002 9.33203 -158.002 27.999c-44 18.666 -80 44.833 -108 78.5s-48.833 74.334 -62.5 122.001s-20.834 100.5 -21.501 158.5h60c0.666992 -51.333 6.66699 -97.166 18 -137.499s29 -74.5 53 -102.5s54.167 -49.5 90.5 -64.5
s79.833 -22.5 130.5 -22.5c34.667 0 67 3.66699 97 11s56 17.833 78 31.5s39.333 29.834 52 48.501s19 39 19 61c0 10 -2.16699 19.167 -6.5 27.5c-4.33496 8.33301 -9.66797 15.333 -16 21c-6.33301 5.66699 -13.5 10 -21.5 13s-15.667 4.5 -23 4.5
c-13.333 0 -29.833 2.66699 -49.5 8s-39.167 14.333 -58.5 27v52c8 -4.66699 18.333 -9 31 -13s26 -7.33301 40 -10s27.833 -4.66699 41.5 -6s25.5 -2 35.5 -2h189c-21.3359 21.333 -39.1689 48.166 -53.499 80.499c-14.333 32.333 -21.5 68.5 -21.5 108.5
c0 36.667 4.83301 70 14.5 100c9.67285 30 23.8398 55.833 42.501 77.5c18.6699 21.667 41.8369 38.5 69.5 50.5c27.667 12 59.5 18 95.5 18s67.833 -6 95.5 -18s50.834 -28.833 69.501 -50.5s32.834 -47.5 42.501 -77.5s14.5 -63.333 14.5 -100s-4.5 -70 -13.5 -100
s-22.833 -55.833 -41.5 -77.5c-18.6748 -21.667 -41.8418 -38.334 -69.5 -50.001c-27.667 -11.667 -60.167 -17.5 -97.5 -17.5h-288c8.67188 -10 15.8389 -23.167 21.5 -39.5c5.66699 -16.333 8.5 -31.166 8.5 -44.499c0 -26 -6.83301 -50.833 -20.5 -74.5
s-33.334 -44.334 -59.001 -62.001s-57 -31.667 -94 -42s-78.833 -15.5 -125.5 -15.5zM1105 244.999c0 62 -14.333 108.667 -43 140c-28.6689 31.333 -67.002 47 -115 47c-48 0 -86.333 -15.667 -115 -47s-43 -78 -43 -140s14.333 -109.333 43 -142s67 -49 115 -49
s86.333 16.333 115 49s43 80 43 142zM939.998 715.999h60v-117h-60v117z" />
    <glyph glyph-name="uniFC32" unicode="&#xfc32;" horiz-adv-x="1224" arabic-form="isolated" 
d="M390 -278c-61.333 0 -114.002 9.33203 -158.002 27.999c-44 18.666 -80 44.833 -108 78.5s-48.833 74.334 -62.5 122.001s-20.834 100.5 -21.501 158.5h60c0.666992 -51.333 6.66699 -97.166 18 -137.499s29 -74.5 53 -102.5s54.167 -49.5 90.5 -64.5
s79.833 -22.5 130.5 -22.5c34.667 0 67 3.66699 97 11s56 17.833 78 31.5s39.333 29.834 52 48.501s19 39 19 61c0 10 -2.16699 19.167 -6.5 27.5c-4.33496 8.33301 -9.66797 15.333 -16 21c-6.33301 5.66699 -13.5 10 -21.5 13s-15.667 4.5 -23 4.5
c-13.333 0 -29.833 2.66699 -49.5 8s-39.167 14.333 -58.5 27v52c8 -4.66699 18.333 -9 31 -13s26 -7.33301 40 -10s27.833 -4.66699 41.5 -6s25.5 -2 35.5 -2h189c-21.3359 21.333 -39.1689 48.166 -53.499 80.499c-14.333 32.333 -21.5 68.5 -21.5 108.5
c0 36.667 4.83301 70 14.5 100c9.67285 30 23.8398 55.833 42.501 77.5c18.6699 21.667 41.8369 38.5 69.5 50.5c27.667 12 59.5 18 95.5 18s67.833 -6 95.5 -18s50.834 -28.833 69.501 -50.5s32.834 -47.5 42.501 -77.5s14.5 -63.333 14.5 -100s-4.5 -70 -13.5 -100
s-22.833 -55.833 -41.5 -77.5c-18.6748 -21.667 -41.8418 -38.334 -69.5 -50.001c-27.667 -11.667 -60.167 -17.5 -97.5 -17.5h-288c8.67188 -10 15.8389 -23.167 21.5 -39.5c5.66699 -16.333 8.5 -31.166 8.5 -44.499c0 -26 -6.83301 -50.833 -20.5 -74.5
s-33.334 -44.334 -59.001 -62.001s-57 -31.667 -94 -42s-78.833 -15.5 -125.5 -15.5zM1105 244.999c0 62 -14.333 108.667 -43 140c-28.6689 31.333 -67.002 47 -115 47c-48 0 -86.333 -15.667 -115 -47s-43 -78 -43 -140s14.333 -109.333 43 -142s67 -49 115 -49
s86.333 16.333 115 49s43 80 43 142zM939.998 715.999h60v-117h-60v117zM442.998 -352.001h60v-117h-60v117zM293.998 -352.001h60v-117h-60v117z" />
    <glyph glyph-name="uniFC35" unicode="&#xfc35;" horiz-adv-x="1224" arabic-form="isolated" 
d="M390 -278c-61.333 0 -114.002 9.33203 -158.002 27.999c-44 18.666 -80 44.833 -108 78.5s-48.833 74.334 -62.5 122.001s-20.834 100.5 -21.501 158.5h60c0.666992 -51.333 6.66699 -97.166 18 -137.499s29 -74.5 53 -102.5s54.167 -49.5 90.5 -64.5
s79.833 -22.5 130.5 -22.5c34.667 0 67 3.66699 97 11s56 17.833 78 31.5s39.333 29.834 52 48.501s19 39 19 61c0 10 -2.16699 19.167 -6.5 27.5c-4.33496 8.33301 -9.66797 15.333 -16 21c-6.33301 5.66699 -13.5 10 -21.5 13s-15.667 4.5 -23 4.5
c-13.333 0 -29.833 2.66699 -49.5 8s-39.167 14.333 -58.5 27v52c8 -4.66699 18.333 -9 31 -13s26 -7.33301 40 -10s27.833 -4.66699 41.5 -6s25.5 -2 35.5 -2h189c-21.3359 21.333 -39.1689 48.166 -53.499 80.499c-14.333 32.333 -21.5 68.5 -21.5 108.5
c0 36.667 4.83301 70 14.5 100c9.67285 30 23.8398 55.833 42.501 77.5c18.6699 21.667 41.8369 38.5 69.5 50.5c27.667 12 59.5 18 95.5 18s67.833 -6 95.5 -18s50.834 -28.833 69.501 -50.5s32.834 -47.5 42.501 -77.5s14.5 -63.333 14.5 -100s-4.5 -70 -13.5 -100
s-22.833 -55.833 -41.5 -77.5c-18.6748 -21.667 -41.8418 -38.334 -69.5 -50.001c-27.667 -11.667 -60.167 -17.5 -97.5 -17.5h-288c8.67188 -10 15.8389 -23.167 21.5 -39.5c5.66699 -16.333 8.5 -31.166 8.5 -44.499c0 -26 -6.83301 -50.833 -20.5 -74.5
s-33.334 -44.334 -59.001 -62.001s-57 -31.667 -94 -42s-78.833 -15.5 -125.5 -15.5zM1105 244.999c0 62 -14.333 108.667 -43 140c-28.6689 31.333 -67.002 47 -115 47c-48 0 -86.333 -15.667 -115 -47s-43 -78 -43 -140s14.333 -109.333 43 -142s67 -49 115 -49
s86.333 16.333 115 49s43 80 43 142zM1016 714.999h60v-117h-60v117zM866.998 714.999h60v-117h-60v117z" />
    <glyph glyph-name="uniFC36" unicode="&#xfc36;" horiz-adv-x="1224" arabic-form="isolated" 
d="M390 -278c-61.333 0 -114.002 9.33203 -158.002 27.999c-44 18.666 -80 44.833 -108 78.5s-48.833 74.334 -62.5 122.001s-20.834 100.5 -21.501 158.5h60c0.666992 -51.333 6.66699 -97.166 18 -137.499s29 -74.5 53 -102.5s54.167 -49.5 90.5 -64.5
s79.833 -22.5 130.5 -22.5c34.667 0 67 3.66699 97 11s56 17.833 78 31.5s39.333 29.834 52 48.501s19 39 19 61c0 10 -2.16699 19.167 -6.5 27.5c-4.33496 8.33301 -9.66797 15.333 -16 21c-6.33301 5.66699 -13.5 10 -21.5 13s-15.667 4.5 -23 4.5
c-13.333 0 -29.833 2.66699 -49.5 8s-39.167 14.333 -58.5 27v52c8 -4.66699 18.333 -9 31 -13s26 -7.33301 40 -10s27.833 -4.66699 41.5 -6s25.5 -2 35.5 -2h189c-21.3359 21.333 -39.1689 48.166 -53.499 80.499c-14.333 32.333 -21.5 68.5 -21.5 108.5
c0 36.667 4.83301 70 14.5 100c9.67285 30 23.8398 55.833 42.501 77.5c18.6699 21.667 41.8369 38.5 69.5 50.5c27.667 12 59.5 18 95.5 18s67.833 -6 95.5 -18s50.834 -28.833 69.501 -50.5s32.834 -47.5 42.501 -77.5s14.5 -63.333 14.5 -100s-4.5 -70 -13.5 -100
s-22.833 -55.833 -41.5 -77.5c-18.6748 -21.667 -41.8418 -38.334 -69.5 -50.001c-27.667 -11.667 -60.167 -17.5 -97.5 -17.5h-288c8.67188 -10 15.8389 -23.167 21.5 -39.5c5.66699 -16.333 8.5 -31.166 8.5 -44.499c0 -26 -6.83301 -50.833 -20.5 -74.5
s-33.334 -44.334 -59.001 -62.001s-57 -31.667 -94 -42s-78.833 -15.5 -125.5 -15.5zM1105 244.999c0 62 -14.333 108.667 -43 140c-28.6689 31.333 -67.002 47 -115 47c-48 0 -86.333 -15.667 -115 -47s-43 -78 -43 -140s14.333 -109.333 43 -142s67 -49 115 -49
s86.333 16.333 115 49s43 80 43 142zM1016 714.999h60v-117h-60v117zM866.998 714.999h60v-117h-60v117zM442.998 -352.001h60v-117h-60v117zM293.998 -352.001h60v-117h-60v117z" />
    <glyph glyph-name="uniFC3D" unicode="&#xfc3d;" horiz-adv-x="1216" arabic-form="isolated" 
d="M1092 56l0.00195312 164.997c0 34.667 -4 64.5 -12 89.5s-19.167 45.5 -33.5 61.5s-31.333 27.667 -51 35s-40.834 11 -63.501 11h-288v56l240 241h78l-237 -241h202c40.6689 0 75.3359 -6.83301 104.001 -20.5c28.667 -13.667 52 -32.167 70 -55.5s31 -50.333 39 -81
s12 -62.667 12 -96v-221h-492c8.66699 -10 15.834 -23.167 21.5 -39.5c5.66699 -16.333 8.5 -31.166 8.5 -44.499c0 -26 -6.83301 -50.833 -20.5 -74.5s-33.334 -44.334 -59.001 -62.001s-57 -31.667 -94 -42s-78.833 -15.5 -125.5 -15.5c-61.333 0 -114 9.33301 -158 28
c-44 18.666 -80 44.833 -108 78.5s-48.833 74.334 -62.5 122.001s-20.834 100.5 -21.501 158.5h60c0.666992 -51.333 6.66699 -97.166 18 -137.499s29 -74.5 53 -102.5s54.167 -49.5 90.5 -64.5s79.833 -22.5 130.5 -22.5c34.667 0 67 3.66699 97 11s56 17.833 78 31.5
s39.333 29.834 52 48.501s19 39 19 61c0 10 -2.16699 19.167 -6.5 27.5c-4.34277 8.33301 -9.67578 15.333 -16 21c-6.33301 5.66699 -13.5 10 -21.5 13s-15.667 4.5 -23 4.5c-13.333 0 -29.833 2.66699 -49.5 8s-39.167 14.333 -58.5 27v52c8 -4.66699 18.333 -9 31 -13
s26 -7.33301 40 -10s27.833 -4.66699 41.5 -6s25.5 -2 35.5 -2h480z" />
    <glyph glyph-name="uniFC3E" unicode="&#xfc3e;" horiz-adv-x="1216" arabic-form="isolated" 
d="M1092 56l0.00195312 164.997c0 34.667 -4 64.5 -12 89.5s-19.167 45.5 -33.5 61.5s-31.333 27.667 -51 35s-40.834 11 -63.501 11h-288v56l240 241h78l-237 -241h202c40.6689 0 75.3359 -6.83301 104.001 -20.5c28.667 -13.667 52 -32.167 70 -55.5s31 -50.333 39 -81
s12 -62.667 12 -96v-221h-492c8.66699 -10 15.834 -23.167 21.5 -39.5c5.66699 -16.333 8.5 -31.166 8.5 -44.499c0 -26 -6.83301 -50.833 -20.5 -74.5s-33.334 -44.334 -59.001 -62.001s-57 -31.667 -94 -42s-78.833 -15.5 -125.5 -15.5c-61.333 0 -114 9.33301 -158 28
c-44 18.666 -80 44.833 -108 78.5s-48.833 74.334 -62.5 122.001s-20.834 100.5 -21.501 158.5h60c0.666992 -51.333 6.66699 -97.166 18 -137.499s29 -74.5 53 -102.5s54.167 -49.5 90.5 -64.5s79.833 -22.5 130.5 -22.5c34.667 0 67 3.66699 97 11s56 17.833 78 31.5
s39.333 29.834 52 48.501s19 39 19 61c0 10 -2.16699 19.167 -6.5 27.5c-4.34277 8.33301 -9.67578 15.333 -16 21c-6.33301 5.66699 -13.5 10 -21.5 13s-15.667 4.5 -23 4.5c-13.333 0 -29.833 2.66699 -49.5 8s-39.167 14.333 -58.5 27v52c8 -4.66699 18.333 -9 31 -13
s26 -7.33301 40 -10s27.833 -4.66699 41.5 -6s25.5 -2 35.5 -2h480zM421.002 -352.003h60v-117h-60v117zM272.002 -352.003h60v-117h-60v117z" />
    <glyph glyph-name="uniFC43" unicode="&#xfc43;" horiz-adv-x="904" arabic-form="isolated" 
d="M769 56l0.00195312 658.997h60v-715h-170c8.67188 -10 15.8389 -23.167 21.5 -39.5c5.66699 -16.333 8.5 -31.166 8.5 -44.499c0 -26 -6.83301 -50.833 -20.5 -74.5s-33.334 -44.334 -59.001 -62.001s-57 -31.667 -94 -42s-78.833 -15.5 -125.5 -15.5
c-61.333 0 -114 9.33301 -158 28c-44 18.666 -80 44.833 -108 78.5s-48.833 74.334 -62.5 122.001s-20.834 100.5 -21.501 158.5h60c0.666992 -51.333 6.66699 -97.166 18 -137.499s29 -74.5 53 -102.5s54.167 -49.5 90.5 -64.5s79.833 -22.5 130.5 -22.5
c34.667 0 67 3.66699 97 11s56 17.833 78 31.5s39.333 29.834 52 48.501s19 39 19 61c0 10 -2.16699 19.167 -6.5 27.5c-4.33496 8.33301 -9.66797 15.333 -16 21c-6.33301 5.66699 -13.5 10 -21.5 13s-15.667 4.5 -23 4.5c-13.333 0 -29.833 2.66699 -49.5 8
s-39.167 14.333 -58.5 27v52c8 -4.66699 18.333 -9 31 -13s26 -7.33301 40 -10s27.833 -4.66699 41.5 -6s25.5 -2 35.5 -2h158z" />
    <glyph glyph-name="uniFC44" unicode="&#xfc44;" horiz-adv-x="904" arabic-form="isolated" 
d="M769 56l0.00195312 658.997h60v-715h-170c8.67188 -10 15.8389 -23.167 21.5 -39.5c5.66699 -16.333 8.5 -31.166 8.5 -44.499c0 -26 -6.83301 -50.833 -20.5 -74.5s-33.334 -44.334 -59.001 -62.001s-57 -31.667 -94 -42s-78.833 -15.5 -125.5 -15.5
c-61.333 0 -114 9.33301 -158 28c-44 18.666 -80 44.833 -108 78.5s-48.833 74.334 -62.5 122.001s-20.834 100.5 -21.501 158.5h60c0.666992 -51.333 6.66699 -97.166 18 -137.499s29 -74.5 53 -102.5s54.167 -49.5 90.5 -64.5s79.833 -22.5 130.5 -22.5
c34.667 0 67 3.66699 97 11s56 17.833 78 31.5s39.333 29.834 52 48.501s19 39 19 61c0 10 -2.16699 19.167 -6.5 27.5c-4.33496 8.33301 -9.66797 15.333 -16 21c-6.33301 5.66699 -13.5 10 -21.5 13s-15.667 4.5 -23 4.5c-13.333 0 -29.833 2.66699 -49.5 8
s-39.167 14.333 -58.5 27v52c8 -4.66699 18.333 -9 31 -13s26 -7.33301 40 -10s27.833 -4.66699 41.5 -6s25.5 -2 35.5 -2h158zM453.002 -352.003h60v-117h-60v117zM304.002 -352.003h60v-117h-60v117z" />
    <glyph glyph-name="uniFC53" unicode="&#xfc53;" horiz-adv-x="1283" arabic-form="isolated" 
d="M390 -278c-61.333 0 -113.996 9.33008 -157.996 27.9971c-44 18.666 -80 44.833 -108 78.5s-48.833 74.334 -62.5 122.001s-20.834 100.5 -21.501 158.5h60c0.666992 -51.333 6.66699 -97.166 18 -137.499s29 -74.5 53 -102.5s54.167 -49.5 90.5 -64.5
s79.833 -22.5 130.5 -22.5c34.667 0 67 3.66699 97 11s56 17.833 78 31.5s39.333 29.834 52 48.501s19 39 19 61c0 10 -2.16699 19.167 -6.5 27.5c-4.33496 8.33301 -9.66797 15.333 -16 21c-6.33301 5.66699 -13.5 10 -21.5 13s-15.667 4.5 -23 4.5
c-13.333 0 -29.833 2.66699 -49.5 8s-39.167 14.333 -58.5 27v52c8 -4.66699 18.333 -9 31 -13s26 -7.33301 40 -10s27.833 -4.66699 41.5 -6s25.5 -2 35.5 -2h100c-15.335 15.333 -28.168 34.333 -38.5 57c-10.333 22.667 -15.5 49 -15.5 79c0 54 13.5 96 40.5 126
s60.5 46.333 100.5 49c19.333 35.333 46.166 64.833 80.499 88.5s73.166 35.5 116.499 35.5c38.667 0 72 -6 100 -18s51.167 -29 69.5 -51s31.833 -48.5 40.5 -79.5s13 -65.5 13 -103.5v-239h-559c8.67188 -10 15.8389 -23.167 21.5 -39.5
c5.66699 -16.333 8.5 -31.166 8.5 -44.499c0 -26 -6.83301 -50.833 -20.5 -74.5s-33.334 -44.334 -59.001 -62.001s-57 -31.667 -94 -42s-78.833 -15.5 -125.5 -15.5zM963.004 191.997c0 -30 -5.16699 -56.333 -15.5 -79s-23.5 -41.667 -39.5 -57h250v183
c0 66.667 -14.667 116 -44 148s-69 48 -119 48c-30 0 -56.167 -7.83301 -78.5 -23.5c-22.3369 -15.667 -40.1699 -33.167 -53.5 -52.5c30 -10.667 54.167 -30.167 72.5 -58.5s27.5 -64.5 27.5 -108.5zM810.004 311.997c-28.667 0 -51.8281 -9.16699 -69.4951 -27.5
s-26.5 -49.166 -26.5 -92.499c0 -21.333 2.83301 -39.833 8.5 -55.5s13.167 -28.5 22.5 -38.5s19.666 -17.5 30.999 -22.5s22.666 -7.5 33.999 -7.5s22.666 2.5 33.999 7.5s21.666 12.5 30.999 22.5s16.833 22.833 22.5 38.5s8.5 34.167 8.5 55.5
c0 43.333 -8.83301 74.166 -26.5 92.499s-40.834 27.5 -69.501 27.5z" />
    <glyph glyph-name="uniFC54" unicode="&#xfc54;" horiz-adv-x="1283" arabic-form="isolated" 
d="M390 -278c-61.333 0 -113.996 9.33008 -157.996 27.9971c-44 18.666 -80 44.833 -108 78.5s-48.833 74.334 -62.5 122.001s-20.834 100.5 -21.501 158.5h60c0.666992 -51.333 6.66699 -97.166 18 -137.499s29 -74.5 53 -102.5s54.167 -49.5 90.5 -64.5
s79.833 -22.5 130.5 -22.5c34.667 0 67 3.66699 97 11s56 17.833 78 31.5s39.333 29.834 52 48.501s19 39 19 61c0 10 -2.16699 19.167 -6.5 27.5c-4.33496 8.33301 -9.66797 15.333 -16 21c-6.33301 5.66699 -13.5 10 -21.5 13s-15.667 4.5 -23 4.5
c-13.333 0 -29.833 2.66699 -49.5 8s-39.167 14.333 -58.5 27v52c8 -4.66699 18.333 -9 31 -13s26 -7.33301 40 -10s27.833 -4.66699 41.5 -6s25.5 -2 35.5 -2h100c-15.335 15.333 -28.168 34.333 -38.5 57c-10.333 22.667 -15.5 49 -15.5 79c0 54 13.5 96 40.5 126
s60.5 46.333 100.5 49c19.333 35.333 46.166 64.833 80.499 88.5s73.166 35.5 116.499 35.5c38.667 0 72 -6 100 -18s51.167 -29 69.5 -51s31.833 -48.5 40.5 -79.5s13 -65.5 13 -103.5v-239h-559c8.67188 -10 15.8389 -23.167 21.5 -39.5
c5.66699 -16.333 8.5 -31.166 8.5 -44.499c0 -26 -6.83301 -50.833 -20.5 -74.5s-33.334 -44.334 -59.001 -62.001s-57 -31.667 -94 -42s-78.833 -15.5 -125.5 -15.5zM963.004 191.997c0 -30 -5.16699 -56.333 -15.5 -79s-23.5 -41.667 -39.5 -57h250v183
c0 66.667 -14.667 116 -44 148s-69 48 -119 48c-30 0 -56.167 -7.83301 -78.5 -23.5c-22.3369 -15.667 -40.1699 -33.167 -53.5 -52.5c30 -10.667 54.167 -30.167 72.5 -58.5s27.5 -64.5 27.5 -108.5zM810.004 311.997c-28.667 0 -51.8281 -9.16699 -69.4951 -27.5
s-26.5 -49.166 -26.5 -92.499c0 -21.333 2.83301 -39.833 8.5 -55.5s13.167 -28.5 22.5 -38.5s19.666 -17.5 30.999 -22.5s22.666 -7.5 33.999 -7.5s22.666 2.5 33.999 7.5s21.666 12.5 30.999 22.5s16.833 22.833 22.5 38.5s8.5 34.167 8.5 55.5
c0 43.333 -8.83301 74.166 -26.5 92.499s-40.834 27.5 -69.501 27.5zM411.01 -352.003h60v-117h-60v117zM262.01 -352.003h60v-117h-60v117z" />
    <glyph glyph-name="uni064C0651" unicode="&#xfc5e;" arabic-form="isolated" 
d="M-46 896c14 0 26.8301 4 38.4971 12s21.834 17.667 30.501 29c-4.66699 0.695312 -10.167 2.3623 -16.5 5c-6.33301 2.68066 -12.333 6.34766 -18 11c-5.66699 4.66699 -10.667 10.334 -15 17c-4.33301 6.66699 -6.5 14 -6.5 22c0 15.333 4.33301 27.833 13 37.5
s20 14.5 34 14.5s25.667 -4.66699 35 -14c9.33301 -9.33691 14 -23.6699 14 -42.999c0 -13.333 -3.16699 -26.333 -9.5 -39s-14.666 -24.334 -24.999 -35.001s-22 -19.167 -35 -25.5s-26.167 -9.5 -39.5 -9.5s-24.666 5.33301 -33.999 16c-9.33301 10.668 -14 25.335 -14 44
h-20v19h17c6 0 10.667 -1.33301 14 -4s5 -7.66699 5 -15c0 -9.34082 2.5 -18.6738 7.5 -28c5 -9.33301 13.167 -14 24.5 -14zM-13.0029 991c0 -9.34082 4.83203 -17.6748 14.499 -25.001c9.66699 -7.34766 20.5 -11.6807 32.5 -12.999c6.66699 12 10 23.667 10 35
s-2.66699 20.5 -8 27.5s-12.666 10.5 -21.999 10.5c-8 0 -14.5 -3.16699 -19.5 -9.5s-7.5 -14.833 -7.5 -25.5zM-61.0039 734.999c-8 0 -16.333 3.00293 -25 9.00293s-15.667 18.333 -21 37l-10 40l28 8l9 -32c2.66699 -9.33301 5.83398 -17.333 9.50098 -24
s10.167 -10 19.5 -10c12 0 20.833 4.16699 26.5 12.5s7.16699 17.166 4.5 26.499l-11 42l29 8l8 -32c2.66699 -9.33301 7.16699 -16.833 13.5 -22.5s12.166 -8.5 17.499 -8.5c10 0 17.167 2 21.5 6s6.66602 9.5 6.99902 16.5s-0.5 15.333 -2.5 25s-4.66699 20.5 -8 32.5
l28 7c3.33301 -10 6.16602 -20.5 8.49902 -31.5s3.5 -21.5 3.5 -31.5c0 -14.667 -3.66699 -26.834 -11 -36.501s-21.333 -14.5 -42 -14.5c-8 0 -15.333 1.16699 -22 3.5s-13 8.16602 -19 17.499c-1.33301 -14 -7.66602 -25.5 -18.999 -34.5s-25.666 -13.5 -42.999 -13.5z
" />
    <glyph glyph-name="uni064D0651" unicode="&#xfc5f;" arabic-form="isolated" 
d="M-68 924c-8 0 -16.334 3.00293 -25.001 9.00293s-15.667 18.333 -21 37l-10 40l28 8l9 -32c2.66699 -9.33301 5.83398 -17.333 9.50098 -24s10.167 -10 19.5 -10c12 0 20.833 4.16699 26.5 12.5s7.16699 17.166 4.5 26.499l-11 42l29 8l8 -32
c2.66699 -9.33301 7.16699 -16.833 13.5 -22.5s12.166 -8.5 17.499 -8.5c10 0 17.167 2 21.5 6s6.66602 9.5 6.99902 16.5s-0.5 15.333 -2.5 25s-4.66699 20.5 -8 32.5l28 7c3.33398 -10 6.16699 -20.5 8.5 -31.5s3.5 -21.5 3.5 -31.5
c0 -14.667 -3.66699 -26.834 -11 -36.501s-21.333 -14.5 -42 -14.5c-8 0 -15.333 1.16699 -22 3.5s-13 8.16602 -19 17.499c-1.33301 -14 -7.66602 -25.5 -18.999 -34.5s-25.666 -13.5 -42.999 -13.5zM-75.001 752.003l-7 30l203 54l7 -30zM-94.001 827.003l-7 30l203 54
l7 -30z" />
    </font>
</defs>
</svg>
