<?xml version="1.0" standalone="no"?>
<!DOCTYPE svg PUBLIC "-//W3C//DTD SVG 1.1//EN" "http://www.w3.org/Graphics/SVG/1.1/DTD/svg11.dtd" >
<svg xmlns="http://www.w3.org/2000/svg" xmlns:xlink="http://www.w3.org/1999/xlink" version="1.1">
<metadata>
Created by FontForge 20170910 at Thu Dec  9 18:02:32 2010
 By Jimmy Wärting
Copyright 2004 - 2010 Monotype Imaging, Inc. All rights reserved.
</metadata>
<defs>
<font id="NeoSansArabic" horiz-adv-x="605" >
  <font-face 
    font-family="Neo Sans Arabic"
    font-weight="400"
    font-stretch="normal"
    units-per-em="1000"
    panose-1="2 11 5 4 3 5 4 4 2 4"
    ascent="765"
    descent="-235"
    x-height="550"
    cap-height="743"
    bbox="-146 -409 1307 1127"
    underline-thickness="57"
    underline-position="-77"
    unicode-range="U+0020-FEFC"
  />
<missing-glyph horiz-adv-x="500" 
d="M12 665h475v-665h-475v665zM250 375l161 243h-323zM60 91l7 10t18 27t25.5 39t29.5 45q35 54 81 121l-161 242v-484zM278 333l162 -243v485zM250 290l-162 -242h323z" />
    <glyph glyph-name="f_i" unicode="fi" horiz-adv-x="628" 
d="M548 20q0 -8 -6 -14t-14 -6h-48q-8 0 -14 6t-6 14v456h-231v-456q0 -8 -5.5 -14t-13.5 -6h-49q-8 0 -14 6t-6 14v456l-97 11q-19 2 -19 18v27q0 8 5.5 13t13.5 5h97v72q0 40 9.5 67t27.5 43t44 22.5t59 6.5q20 0 33 -2t23 -4q19 -5 19 -16v-33q0 -15 -18 -15h-48
q-35 0 -48 -14t-13 -55v-72h299q8 0 14 -6t6 -14v-510zM550 658q0 -8 -6 -14t-14 -6h-51q-8 0 -14 6t-6 14v80q0 8 6 14t14 6h51q8 0 14 -6t6 -14v-80z" />
    <glyph glyph-name="f_l" unicode="fl" horiz-adv-x="625" 
d="M548 20q0 -8 -5 -14t-13 -6h-52q-8 0 -13 6t-5 14v671h-164q-35 0 -51 -14t-16 -55v-72h105q8 0 13.5 -5t5.5 -13v-39q0 -17 -19 -17h-105v-456q0 -8 -5.5 -14t-13.5 -6h-49q-8 0 -14 6t-6 14v456l-97 11q-19 2 -19 18v27q0 8 5.5 13t13.5 5h97v72q0 40 10.5 67t29.5 43
t46 22.5t60 6.5q10 0 33.5 -0.5t51.5 -1.5t56.5 -2.5t49.5 -4.5h52q8 0 13 -5.5t5 -13.5v-713z" />
    <glyph glyph-name="LamAlefSep" unicode="&#xfedf;&#xfe8e;" horiz-adv-x="644" arabic-form="isolated" 
d="M180 671q0 19 19 19h48q17 0 17 -19v-476q0 -19 -18 -19h-47q-19 0 -19 19v476zM46 68q0 18 19 18h362q29 0 37 5t8 31v610q0 8 5.5 14t13.5 6h50q8 0 12.5 -6t4.5 -14v-577q0 -41 -1 -68t-3 -48q-2 -10 -6 -17t-16 -12q-8 -3 -23 -4.5t-34 -3t-39 -2t-39 -0.5h-332
q-19 0 -19 17v51z" />
    <glyph glyph-name="LamAlefHamzaBelowSep" unicode="&#xfedf;&#xfe88;" horiz-adv-x="644" arabic-form="isolated" 
d="M180 671q0 19 19 19h48q17 0 17 -19v-476q0 -19 -18 -19h-47q-19 0 -19 19v476zM46 68q0 18 19 18h362q29 0 37 5t8 31v610q0 8 5.5 14t13.5 6h50q8 0 12.5 -6t4.5 -14v-577q0 -41 -1 -68t-3 -48q-2 -10 -6 -17t-16 -12q-8 -3 -23 -4.5t-34 -3t-39 -2t-39 -0.5h-332
q-19 0 -19 17v51zM149 -241q-18 0 -18 12v17q0 10 18 10h17q-9 11 -13 26.5t-4 30.5q0 42 24.5 61.5t69.5 19.5q8 0 18 -1t20 -3q11 -4 11 -12v-14q0 -11 -13 -11q-2 0 -14 0.5t-17 0.5q-53 0 -53 -45q0 -21 7 -34.5t15 -17.5h67q17 0 17 -12v-16q0 -8 -4.5 -10t-12.5 -2
h-135z" />
    <glyph glyph-name="LamAlefHamzaAboveSep" unicode="&#xfedf;&#xfe84;" horiz-adv-x="644" arabic-form="isolated" 
d="M180 641q0 8 5.5 14t13.5 6h48q8 0 12.5 -6t4.5 -14v-446q0 -19 -18 -19h-47q-19 0 -19 19v446zM46 68q0 18 19 18h361q29 0 37.5 5t8.5 31v610q0 8 5 14t13 6h51q8 0 12.5 -6t4.5 -14v-577q0 -41 -1 -68t-3 -48q-2 -10 -6 -17t-16 -12q-8 -3 -23 -4.5t-34 -3t-39 -2
t-39 -0.5h-332q-19 0 -19 17v51zM155 736q-18 0 -18 12v17q0 10 18 10h17q-9 11 -13 26.5t-4 30.5q0 42 24.5 61.5t69.5 19.5q8 0 18 -1t20 -3q11 -4 11 -12v-14q0 -11 -13 -11q-2 0 -14 0.5t-17 0.5q-53 0 -53 -45q0 -21 7 -34.5t15 -17.5h67q17 0 17 -12v-16
q0 -8 -4.5 -10t-12.5 -2h-135z" />
    <glyph glyph-name="LamAlefMaddaSep" unicode="&#xfedf;&#xfe82;" horiz-adv-x="644" arabic-form="isolated" 
d="M180 641q0 8 5.5 14t13.5 6h48q8 0 12.5 -6t4.5 -14v-446q0 -19 -18 -19h-47q-19 0 -19 19v446zM46 68q0 18 19 18h361q29 0 37.5 5t8.5 31v610q0 8 5 14t13 6h51q8 0 12.5 -6t4.5 -14v-577q0 -41 -1 -68t-3 -48q-2 -10 -6 -17t-16 -12q-8 -3 -23 -4.5t-34 -3t-39 -2
t-39 -0.5h-332q-19 0 -19 17v51zM84 729q-13 0 -13 11q1 12 5.5 24.5t11.5 21.5q13 17 28 22t30 5q17 0 34 -6t38 -14q14 -5 28.5 -8.5t29.5 -3.5q20 0 33.5 4t23.5 9q11 5 19 9t13 4q9 0 9 -9v-23q0 -10 -9 -17q-14 -11 -38.5 -18.5t-52.5 -7.5q-23 0 -43 4.5t-55 19.5
q-10 5 -17 6.5t-12 1.5q-8 0 -13.5 -4t-7.5 -9l-5 -10q-6 -12 -15 -12h-22z" />
    <glyph glyph-name="LamAlefWaslaSep" unicode="&#xfedf;&#xfb51;" horiz-adv-x="644" 
d="M180 641q0 8 5.5 14t13.5 6h48q8 0 12.5 -6t4.5 -14v-446q0 -19 -18 -19h-47q-19 0 -19 19v446zM46 68q0 18 19 18h361q29 0 37.5 5t8.5 31v610q0 8 5 14t13 6h51q8 0 12.5 -6t4.5 -14v-577q0 -41 -1 -68t-3 -48q-2 -10 -6 -17t-16 -12q-8 -3 -23 -4.5t-34 -3t-39 -2
t-39 -0.5h-332q-19 0 -19 17v51zM273 880q38 0 57.5 -21.5t19.5 -50.5q0 -73 -87 -73h-150q-19 0 -19 11v15q0 8 5 10t14 2h56q16 62 41.5 84.5t62.5 22.5zM261 773q26 0 36.5 9t10.5 26q0 15 -10.5 24t-24.5 9q-18 0 -33.5 -13t-27.5 -55h49z" />
    <glyph glyph-name="LamAlefFin" unicode="&#xfee0;&#xfe8e;" horiz-adv-x="651" arabic-form="final" 
d="M180 671q0 8 5 13.5t13 5.5h49q17 0 17 -19v-476q0 -8 -5 -13.5t-13 -5.5h-48q-8 0 -13 5.5t-5 13.5v476zM46 68q0 18 19 18h336q10 0 22 1t23 4.5t18.5 11t7.5 20.5v609q0 8 5 13.5t13 5.5h50q8 0 13 -5.5t5 -13.5v-622q3 -8 12.5 -12.5t21.5 -7t24 -3.5t20 -1h15v-86
h-12q-30 0 -64 6.5t-58 26.5q-26 -21 -60.5 -27t-62.5 -6h-329q-19 0 -19 17v51z" />
    <glyph glyph-name="LamAlefHamzaBelowFin" unicode="&#xfee0;&#xfe88;" horiz-adv-x="651" arabic-form="final" 
d="M180 671q0 8 5 13.5t13 5.5h49q17 0 17 -19v-476q0 -8 -5 -13.5t-13 -5.5h-48q-8 0 -13 5.5t-5 13.5v476zM46 68q0 18 19 18h336q10 0 22 1t23 4.5t18.5 11t7.5 20.5v609q0 8 5 13.5t13 5.5h50q8 0 13 -5.5t5 -13.5v-622q3 -8 12.5 -12.5t21.5 -7t24 -3.5t20 -1h15v-86
h-12q-30 0 -64 6.5t-58 26.5q-26 -21 -60.5 -27t-62.5 -6h-329q-19 0 -19 17v51zM149 -241q-18 0 -18 12v17q0 10 18 10h17q-9 11 -13 26.5t-4 30.5q0 42 24.5 61.5t69.5 19.5q8 0 18 -1t20 -3q11 -4 11 -12v-14q0 -11 -13 -11q-2 0 -14 0.5t-17 0.5q-53 0 -53 -45
q0 -21 7 -34.5t15 -17.5h67q17 0 17 -12v-16q0 -8 -4.5 -10t-12.5 -2h-135z" />
    <glyph glyph-name="LamAlefHamzaAboveFin" unicode="&#xfee0;&#xfe84;" horiz-adv-x="651" arabic-form="final" 
d="M180 641q0 8 5 14t13 6h49q8 0 12.5 -6t4.5 -14v-446q0 -8 -5 -13.5t-13 -5.5h-48q-8 0 -13 5.5t-5 13.5v446zM46 68q0 18 19 18h336q10 0 22 1t23 4.5t18.5 11t7.5 20.5v609q0 8 5 13.5t13 5.5h50q8 0 13 -5.5t5 -13.5v-622q3 -8 12.5 -12.5t21.5 -7t24 -3.5t20 -1h15
v-86h-12q-30 0 -64 6.5t-58 26.5q-26 -21 -60.5 -27t-62.5 -6h-329q-19 0 -19 17v51zM155 736q-18 0 -18 12v17q0 10 18 10h17q-9 11 -13 26.5t-4 30.5q0 42 24.5 61.5t69.5 19.5q8 0 18 -1t20 -3q11 -4 11 -12v-14q0 -11 -13 -11q-2 0 -14 0.5t-17 0.5q-53 0 -53 -45
q0 -21 7 -34.5t15 -17.5h67q17 0 17 -12v-16q0 -8 -4.5 -10t-12.5 -2h-135z" />
    <glyph glyph-name="LamAlefMaddaFin" unicode="&#xfee0;&#xfe82;" horiz-adv-x="651" arabic-form="final" 
d="M84 729q-13 0 -13 11q1 12 5.5 24.5t11.5 21.5q13 17 28 22t30 5q17 0 34 -6t38 -14q14 -5 28.5 -8.5t29.5 -3.5q20 0 33.5 4t23.5 9q11 5 19 9t13 4q9 0 9 -9v-23q0 -10 -9 -17q-14 -11 -38.5 -18.5t-52.5 -7.5q-23 0 -43 4.5t-55 19.5q-10 5 -17 6.5t-12 1.5
q-8 0 -13.5 -4t-7.5 -9l-5 -10q-6 -12 -15 -12h-22zM180 641q0 8 5 14t13 6h49q8 0 12.5 -6t4.5 -14v-446q0 -8 -5 -13.5t-13 -5.5h-48q-8 0 -13 5.5t-5 13.5v446zM46 68q0 18 19 18h336q10 0 22 1t23 4.5t18.5 11t7.5 20.5v609q0 8 5 13.5t13 5.5h50q8 0 13 -5.5t5 -13.5
v-622q3 -8 12.5 -12.5t21.5 -7t24 -3.5t20 -1h15v-86h-12q-30 0 -64 6.5t-58 26.5q-26 -21 -60.5 -27t-62.5 -6h-329q-19 0 -19 17v51z" />
    <glyph glyph-name="LamAlefWaslaFin" unicode="&#xfee0;&#xfb51;" horiz-adv-x="651" 
d="M180 641q0 8 5 14t13 6h49q8 0 12.5 -6t4.5 -14v-446q0 -8 -5 -13.5t-13 -5.5h-48q-8 0 -13 5.5t-5 13.5v446zM46 68q0 18 19 18h336q10 0 22 1t23 4.5t18.5 11t7.5 20.5v609q0 8 5 13.5t13 5.5h50q8 0 13 -5.5t5 -13.5v-622q3 -8 12.5 -12.5t21.5 -7t24 -3.5t20 -1h15
v-86h-12q-30 0 -64 6.5t-58 26.5q-26 -21 -60.5 -27t-62.5 -6h-329q-19 0 -19 17v51zM273 880q38 0 57.5 -21.5t19.5 -50.5q0 -73 -87 -73h-150q-19 0 -19 11v15q0 8 5 10t14 2h56q16 62 41.5 84.5t62.5 22.5zM261 773q26 0 36.5 9t10.5 26q0 15 -10.5 24t-24.5 9
q-18 0 -33.5 -13t-27.5 -55h49z" />
    <glyph glyph-name="Allah" unicode="&#x627;&#xfedf;&#xfee0;&#xfeea;" horiz-adv-x="1397" arabic-form="isolated" 
d="M62 242q0 59 19 101t53.5 68.5t82 39t104.5 12.5q13 0 30 -1t33.5 -3t31.5 -4.5t26 -5.5q10 -2 12.5 -6.5t2.5 -12.5v-281q0 -40 19 -51.5t51 -11.5h70q9 0 21.5 1t23 4.5t18 11t7.5 20.5v449q0 8 5.5 14t13.5 6h49q8 0 13 -6t5 -14v-462q3 -8 12.5 -12.5t21.5 -7
t24 -3.5t20 -1h89q29 0 36.5 5t7.5 31v610q0 19 19 19h49q18 0 18 -19v-577q0 -24 -1.5 -58t-3.5 -58q-2 -10 -6 -17t-16 -12q-8 -3 -23 -5t-33 -3t-37.5 -1.5t-36.5 -0.5h-59q-31 0 -66.5 6.5t-58.5 26.5q-25 -20 -59.5 -26.5t-63.5 -6.5h-70q-45 0 -75.5 13t-46.5 45
q-17 -22 -52.5 -31.5t-77.5 -9.5h-9q-94 0 -143.5 51t-49.5 148v26zM1221 732q0 8 5.5 14t13.5 6h49q8 0 13 -6t5 -14v-712q0 -8 -5 -14t-13 -6h-49q-8 0 -13.5 6t-5.5 14v712zM146 227q0 -60 26.5 -93.5t92.5 -33.5h19q15 0 31 2t29 8t21 16t8 27v227q-20 2 -35 3t-28 1
q-36 0 -66 -6t-51.5 -21.5t-34 -42t-12.5 -66.5v-21zM654 650q-35 0 -47.5 20.5t-12.5 52.5v15.5t1 16.5q2 14 14 14h14q5 0 9 -4t3 -10q-1 -11 -1 -18.5v-15.5q0 -34 26 -34h4q6 0 16.5 4.5t10.5 22.5v39q0 14 13 14h13q13 0 13 -14v-39q0 -18 10.5 -22.5t16.5 -4.5h4
q11 0 18.5 8t7.5 27v15.5t-1 17.5q-1 6 3 10.5t10 4.5h13q12 0 14 -15q1 -10 1 -16.5v-15.5q0 -32 -14.5 -52.5t-49.5 -20.5h-5q-13 0 -25.5 5t-20.5 16h-2q-8 -11 -22 -16t-29 -5h-5zM689 914q0 5 4 9.5t9 4.5h17q6 0 9.5 -4.5t3.5 -9.5v-93q0 -6 -3.5 -10.5t-9.5 -4.5h-17
q-6 0 -9.5 4.5t-3.5 10.5v93z" />
    <glyph glyph-name="Llah" unicode="&#xfedf;&#xfee0;&#xfeea;" horiz-adv-x="1131" 
d="M62 242q0 59 19 101t53.5 68.5t82 39t104.5 12.5q13 0 30 -1t33.5 -3t31.5 -4.5t26 -5.5q10 -2 12.5 -6.5t2.5 -12.5v-281q0 -40 19 -51.5t51 -11.5h70q9 0 21.5 1t23 4.5t18 11t7.5 20.5v449q0 8 5.5 14t13.5 6h49q8 0 13 -6t5 -14v-462q3 -8 12.5 -12.5t21.5 -7
t24 -3.5t20 -1h89q31 0 37.5 5t6.5 31v610q0 19 19 19h49q18 0 18 -19v-577v-27.5t-0.5 -31.5t-1.5 -28t-3 -29q-2 -10 -6 -17t-16 -12q-8 -3 -23 -5t-33 -3t-37.5 -1.5t-36.5 -0.5h-59q-31 0 -66.5 6.5t-58.5 26.5q-25 -20 -59.5 -26.5t-63.5 -6.5h-70q-45 0 -75.5 13
t-46.5 45q-17 -22 -52.5 -31.5t-77.5 -9.5h-9q-94 0 -143.5 51t-49.5 148v26zM146 227q0 -60 26.5 -93.5t92.5 -33.5h19q15 0 31 2t29 8t21 16t8 27v227q-20 2 -35 3t-28 1q-36 0 -66 -6t-51.5 -21.5t-34 -42t-12.5 -66.5v-21zM654 650q-35 0 -47.5 20.5t-12.5 52.5v15.5
t1 16.5q2 14 14 14h14q5 0 9 -4t3 -10q-1 -11 -1 -18.5v-15.5q0 -34 26 -34h4q6 0 16.5 4.5t10.5 22.5v39q0 14 13 14h13q13 0 13 -14v-39q0 -18 10.5 -22.5t16.5 -4.5h4q11 0 18.5 8t7.5 27v15.5t-1 17.5q-1 6 3 10.5t10 4.5h13q12 0 14 -15q1 -10 1 -16.5v-15.5
q0 -32 -14.5 -52.5t-49.5 -20.5h-5q-13 0 -25.5 5t-20.5 16h-2q-8 -11 -22 -16t-29 -5h-5zM689 914q0 5 4 9.5t9 4.5h17q6 0 9.5 -4.5t3.5 -9.5v-93q0 -6 -3.5 -10.5t-9.5 -4.5h-17q-6 0 -9.5 4.5t-3.5 10.5v93z" />
    <glyph glyph-name="HamzaSep" unicode="&#x621;" horiz-adv-x="436" arabic-form="isolated" 
d="M60 17q-18 0 -18 15v41q0 16 18 16h52q-17 17 -26.5 50t-9.5 69q0 48 14 81.5t38.5 54.5t58.5 30.5t74 9.5q22 0 40 -1.5t38 -5.5q18 -3 18 -17v-35q0 -16 -18 -14q-44 3 -63 3q-66 0 -96 -25.5t-30 -85.5q0 -89 50 -114h162q17 0 17 -16v-41q0 -15 -17 -15h-302z" />
    <glyph glyph-name="AlefSep" unicode="&#x627;" horiz-adv-x="266" arabic-form="isolated" 
d="M90 732q0 8 5.5 14t13.5 6h49q8 0 13 -6t5 -14v-712q0 -8 -5 -14t-13 -6h-49q-8 0 -13.5 6t-5.5 14v712z" />
    <glyph glyph-name="AlefHamzaBelowSep" unicode="&#x625;" horiz-adv-x="266" arabic-form="isolated" 
d="M90 732q0 8 5.5 14t13.5 6h49q8 0 13 -6t5 -14v-712q0 -8 -5 -14t-13 -6h-49q-8 0 -13.5 6t-5.5 14v712zM57 -243q-18 0 -18 12v17q0 10 18 10h17q-9 11 -13 26.5t-4 30.5q0 42 24.5 61.5t69.5 19.5q8 0 18 -1t20 -3q11 -4 11 -12v-14q0 -11 -13 -11q-2 0 -14 0.5
t-17 0.5q-53 0 -53 -45q0 -21 7 -34.5t15 -17.5h67q17 0 17 -12v-16q0 -8 -4.5 -10t-12.5 -2h-135z" />
    <glyph glyph-name="AlefHamzaAboveSep" unicode="&#x623;" horiz-adv-x="266" arabic-form="isolated" 
d="M60 773q-18 0 -18 12v17q0 10 18 10h17q-9 11 -13 26.5t-4 30.5q0 42 24.5 61.5t69.5 19.5q8 0 18 -1t20 -3q11 -4 11 -12v-14q0 -11 -13 -11q-2 0 -14 0.5t-17 0.5q-53 0 -53 -45q0 -21 7 -34.5t15 -17.5h67q17 0 17 -12v-16q0 -8 -4.5 -10t-12.5 -2h-135zM90 679
q0 8 5.5 14t13.5 6h49q8 0 13 -6t5 -14v-659q0 -8 -5 -14t-13 -6h-49q-8 0 -13.5 6t-5.5 14v659z" />
    <glyph glyph-name="AlefMaddaSep" unicode="&#x622;" horiz-adv-x="266" arabic-form="isolated" 
d="M-6 812q-13 0 -13 11q1 12 5.5 24.5t11.5 21.5q13 17 28 22t30 5q17 0 34 -6t38 -14q14 -5 28.5 -8.5t29.5 -3.5q20 0 33.5 4t23.5 9q11 5 19 9t13 4q9 0 9 -9v-23q0 -10 -9 -17q-14 -11 -38.5 -18.5t-52.5 -7.5q-23 0 -43 4.5t-55 19.5q-10 5 -17 6.5t-12 1.5
q-8 0 -13.5 -4t-7.5 -9l-5 -10q-6 -12 -15 -12h-22zM90 732q0 8 5.5 14t13.5 6h49q8 0 13 -6t5 -14v-712q0 -8 -5 -14t-13 -6h-49q-8 0 -13.5 6t-5.5 14v712z" />
    <glyph glyph-name="AlefWaslaSep" unicode="&#x671;" horiz-adv-x="266" arabic-form="isolated" 
d="M90 703q0 8 5.5 13.5t13.5 5.5h49q8 0 13.5 -5.5t5.5 -13.5v-683q0 -8 -5.5 -14t-13.5 -6h-49q-8 0 -13.5 6t-5.5 14v683zM185 941q38 0 57.5 -21.5t19.5 -50.5q0 -73 -87 -73h-150q-19 0 -19 11v15q0 8 5 10t14 2h56q16 62 41.5 84.5t62.5 22.5zM173 834q26 0 36.5 9
t10.5 26q0 15 -10.5 24t-24.5 9q-18 0 -33.5 -13t-27.5 -55h49z" />
    <glyph glyph-name="AlefFin" unicode="&#x627;" horiz-adv-x="268" arabic-form="final" 
d="M90 732q0 8 5.5 14t13.5 6h49q8 0 13 -6t5 -14v-587q0 -20 4.5 -31.5t13 -17.5t21 -8t28.5 -2h25v-86h-47q-32 0 -56 5.5t-41 20t-25.5 38.5t-8.5 62v606z" />
    <glyph glyph-name="AlefHamzaBelowFin" unicode="&#x625;" horiz-adv-x="268" arabic-form="final" 
d="M71 -243q-18 0 -18 12v17q0 10 18 10h17q-9 11 -13 26.5t-4 30.5q0 42 24.5 61.5t69.5 19.5q8 0 18 -1t20 -3q11 -4 11 -12v-14q0 -11 -13 -11q-2 0 -14 0.5t-17 0.5q-53 0 -53 -45q0 -21 7 -34.5t15 -17.5h67q17 0 17 -12v-16q0 -8 -4.5 -10t-12.5 -2h-135zM90 732
q0 8 5.5 14t13.5 6h49q8 0 13 -6t5 -14v-587q0 -20 4.5 -31.5t13 -17.5t21 -8t28.5 -2h25v-86h-47q-32 0 -56 5.5t-41 20t-25.5 38.5t-8.5 62v606z" />
    <glyph glyph-name="AlefHamzaAboveFin" unicode="&#x623;" horiz-adv-x="268" arabic-form="final" 
d="M90 679q0 8 5.5 14t13.5 6h49q8 0 13 -6t5 -14v-534q0 -20 4.5 -31.5t13 -17.5t21 -8t28.5 -2h25v-86h-47q-32 0 -56 5.5t-41 20t-25.5 38.5t-8.5 62v553zM59 773q-18 0 -18 12v17q0 10 18 10h17q-9 11 -13 26.5t-4 30.5q0 42 24.5 61.5t69.5 19.5q8 0 18 -1t20 -3
q11 -4 11 -12v-14q0 -11 -13 -11q-2 0 -14 0.5t-17 0.5q-53 0 -53 -45q0 -21 7 -34.5t15 -17.5h67q17 0 17 -12v-16q0 -8 -4.5 -10t-12.5 -2h-135z" />
    <glyph glyph-name="AlefMaddaFin" unicode="&#x622;" horiz-adv-x="268" arabic-form="final" 
d="M-11 819q-13 0 -13 11q1 12 5.5 24.5t11.5 21.5q13 17 28 22t30 5q17 0 34 -6t38 -14q14 -5 28.5 -8.5t29.5 -3.5q20 0 33.5 4t23.5 9q11 5 19 9t13 4q9 0 9 -9v-23q0 -10 -9 -17q-14 -11 -38.5 -18.5t-52.5 -7.5q-23 0 -43 4.5t-55 19.5q-10 5 -17 6.5t-12 1.5
q-8 0 -13.5 -4t-7.5 -9l-5 -10q-6 -12 -15 -12h-22zM90 732q0 8 5.5 14t13.5 6h49q8 0 13 -6t5 -14v-587q0 -20 4.5 -31.5t13 -17.5t21 -8t28.5 -2h25v-86h-47q-32 0 -56 5.5t-41 20t-25.5 38.5t-8.5 62v606z" />
    <glyph glyph-name="AlefWaslaFin" unicode="&#x671;" horiz-adv-x="268" arabic-form="final" 
d="M90 703q0 8 5.5 13.5t13.5 5.5h49q8 0 13 -5.5t5 -13.5v-558q0 -20 4.5 -31.5t13 -17.5t21 -8t28.5 -2h25v-86h-47q-32 0 -56 5.5t-41 20t-25.5 38.5t-8.5 62v577zM179 941q38 0 57.5 -21.5t19.5 -50.5q0 -73 -87 -73h-150q-19 0 -19 11v15q0 8 5 10t14 2h56
q16 62 41.5 84.5t62.5 22.5zM167 834q26 0 36.5 9t10.5 26q0 15 -10.5 24t-24.5 9q-18 0 -33.5 -13t-27.5 -55h49z" />
    <glyph glyph-name="BehSep" unicode="&#x628;" horiz-adv-x="891" arabic-form="isolated" 
d="M389 -115q0 10 7 16t16 6h43q9 0 16 -6t7 -16v-54q0 -8 -7 -14.5t-16 -6.5h-43q-9 0 -16 6.5t-7 14.5v54zM683 86q28 0 36 5t8 31v66v62t-0.5 63.5t-1.5 71.5q0 8 5 13.5t13 5.5h47q9 0 14 -5.5t5 -13.5q1 -34 1.5 -57t0.5 -43v-41.5v-51.5q0 -48 -0.5 -89t-3.5 -64
q-2 -10 -6.5 -17t-16.5 -12q-8 -3 -26.5 -4.5t-43 -3t-53 -2t-56.5 -0.5h-234q-96 0 -157.5 18.5t-97 53t-49 84t-13.5 110.5q0 21 1.5 43.5t6.5 51.5q3 19 20 19h42q17 0 15 -20q-2 -23 -3 -39t-1 -33q0 -45 8 -82t33.5 -64t73 -41.5t126.5 -14.5h307z" />
    <glyph glyph-name="BehFin" unicode="&#x628;" horiz-adv-x="905" arabic-form="final" 
d="M389 -115q0 10 7 16t16 6h43q9 0 16 -6t7 -16v-54q0 -8 -7 -14.5t-16 -6.5h-43q-9 0 -16 6.5t-7 14.5v54zM658 86q9 0 21.5 1t23 4.5t18 11t7.5 20.5v262q0 8 5.5 13.5t13.5 5.5h47q8 0 13 -5.5t5 -13.5v-275q3 -8 12.5 -12.5t21 -7t23.5 -3.5t20 -1h16v-86h-11
q-14 0 -30.5 1t-33.5 5t-33 10t-27 17q-26 -22 -65.5 -27.5t-81.5 -5.5h-252q-96 0 -157.5 18.5t-97 53t-49 84t-13.5 110.5q0 21 1.5 43.5t6.5 51.5q3 19 20 19h42q17 0 15 -20q-2 -23 -3 -39t-1 -33q0 -45 8 -82t33.5 -64t73 -41.5t126.5 -14.5h282z" />
    <glyph glyph-name="BehMed" unicode="&#x628;" horiz-adv-x="286" arabic-form="medial" 
d="M-40 73q0 6 10 9.5t24 3.5h45q10 0 22 1t23 4.5t18.5 11t7.5 20.5v262q0 8 5.5 13.5t13.5 5.5h46q8 0 13.5 -5.5t5.5 -13.5v-275q3 -8 12.5 -12.5t21 -7t23.5 -3.5t21 -1h14v-86h-12q-31 0 -66.5 6.5t-58.5 26.5q-25 -20 -59.5 -26.5t-62.5 -6.5h-33q-14 0 -24 3.5
t-10 10.5v59zM102 -115q0 10 7 16t16 6h43q9 0 16 -6t7 -16v-54q0 -8 -7 -14.5t-16 -6.5h-43q-9 0 -16 6.5t-7 14.5v54z" />
    <glyph glyph-name="PehSep" unicode="&#x67e;" horiz-adv-x="891" arabic-form="isolated" 
d="M310 -114q0 9 6.5 15t16.5 6h39q9 0 16 -6t7 -15v-50q0 -11 -7 -16.5t-16 -5.5h-39q-10 0 -16.5 5.5t-6.5 16.5v50zM473 -114q0 9 7.5 15t16.5 6h39q9 0 16 -6t7 -15v-50q0 -11 -7 -16.5t-16 -5.5h-39q-10 0 -17 5.5t-7 16.5v50zM392 -242q0 9 7 15t16 6h37q10 0 16.5 -6
t6.5 -15v-45q0 -10 -7 -16t-17 -6h-37q-9 0 -15.5 6t-6.5 16v45zM683 86q28 0 36 5t8 31v66v62t-0.5 63.5t-1.5 71.5q0 8 5 13.5t13 5.5h47q9 0 14 -5.5t5 -13.5q1 -34 1.5 -57t0.5 -43v-41.5v-51.5q0 -48 -0.5 -89t-3.5 -64q-2 -10 -6.5 -17t-16.5 -12q-8 -3 -26.5 -4.5
t-43 -3t-53 -2t-56.5 -0.5h-234q-96 0 -157.5 18.5t-97 53t-49 84t-13.5 110.5q0 21 1.5 43.5t6.5 51.5q3 19 20 19h42q17 0 15 -20q-2 -23 -3 -39t-1 -33q0 -45 8 -82t33.5 -64t73 -41.5t126.5 -14.5h307z" />
    <glyph glyph-name="PehFin" unicode="&#x67e;" horiz-adv-x="905" arabic-form="final" 
d="M658 86q9 0 21.5 1t23 4.5t18 11t7.5 20.5v262q0 8 5.5 13.5t13.5 5.5h47q8 0 13 -5.5t5 -13.5v-275q3 -8 12.5 -12.5t21 -7t23.5 -3.5t20 -1h16v-86h-11q-14 0 -30.5 1t-33.5 5t-33 10t-27 17q-26 -22 -65.5 -27.5t-81.5 -5.5h-252q-96 0 -157.5 18.5t-97 53t-49 84
t-13.5 110.5q0 21 1.5 43.5t6.5 51.5q3 19 20 19h42q17 0 15 -20q-2 -23 -3 -39t-1 -33q0 -45 8 -82t33.5 -64t73 -41.5t126.5 -14.5h282zM311 -114q0 9 6.5 15t16.5 6h39q9 0 16 -6t7 -15v-50q0 -11 -7 -16.5t-16 -5.5h-39q-10 0 -16.5 5.5t-6.5 16.5v50zM474 -114
q0 9 7.5 15t16.5 6h39q9 0 16 -6t7 -15v-50q0 -11 -7 -16.5t-16 -5.5h-39q-10 0 -17 5.5t-7 16.5v50zM393 -242q0 9 7 15t16 6h37q10 0 16.5 -6t6.5 -15v-45q0 -10 -7 -16t-17 -6h-37q-9 0 -15.5 6t-6.5 16v45z" />
    <glyph glyph-name="PehMed" unicode="&#x67e;" horiz-adv-x="286" arabic-form="medial" 
d="M-40 73q0 6 10 9.5t24 3.5h45q10 0 22 1t23 4.5t18.5 11t7.5 20.5v262q0 8 5.5 13.5t13.5 5.5h46q8 0 13.5 -5.5t5.5 -13.5v-275q3 -8 12.5 -12.5t21 -7t23.5 -3.5t21 -1h14v-86h-12q-31 0 -66.5 6.5t-58.5 26.5q-25 -20 -59.5 -26.5t-62.5 -6.5h-33q-14 0 -24 3.5
t-10 10.5v59zM22 -114q0 9 6.5 15t16.5 6h39q9 0 16 -6t7 -15v-50q0 -11 -7 -16.5t-16 -5.5h-39q-10 0 -16.5 5.5t-6.5 16.5v50zM185 -114q0 9 7.5 15t16.5 6h39q9 0 16 -6t7 -15v-50q0 -11 -7 -16.5t-16 -5.5h-39q-10 0 -17 5.5t-7 16.5v50zM104 -242q0 9 7 15t16 6h37
q10 0 16.5 -6t6.5 -15v-45q0 -10 -7 -16t-17 -6h-37q-9 0 -15.5 6t-6.5 16v45z" />
    <glyph glyph-name="TehSep" unicode="&#x62a;" horiz-adv-x="891" arabic-form="isolated" 
d="M309 553q0 10 6.5 16t16.5 6h39q10 0 16.5 -6t6.5 -16v-54q0 -9 -7 -15t-16 -6h-39q-10 0 -16.5 6t-6.5 15v54zM472 553q0 10 7.5 16t16.5 6h39q9 0 16 -6t7 -16v-54q0 -9 -7 -15t-16 -6h-39q-9 0 -16.5 6t-7.5 15v54zM683 86q28 0 36 5t8 31v66v62t-0.5 63.5t-1.5 71.5
q0 8 5 13.5t13 5.5h47q9 0 14 -5.5t5 -13.5q1 -34 1.5 -57t0.5 -43v-41.5v-51.5q0 -48 -0.5 -89t-3.5 -64q-2 -10 -6.5 -17t-16.5 -12q-8 -3 -26.5 -4.5t-43 -3t-53 -2t-56.5 -0.5h-234q-96 0 -157.5 18.5t-97 53t-49 84t-13.5 110.5q0 21 1.5 43.5t6.5 51.5q3 19 20 19h42
q17 0 15 -20q-2 -23 -3 -39t-1 -33q0 -45 8 -82t33.5 -64t73 -41.5t126.5 -14.5h307z" />
    <glyph glyph-name="TehFin" unicode="&#x62a;" horiz-adv-x="905" arabic-form="final" 
d="M313 553q0 10 6.5 16t16.5 6h39q10 0 16.5 -6t6.5 -16v-54q0 -9 -7 -15t-16 -6h-39q-10 0 -16.5 6t-6.5 15v54zM476 553q0 10 7.5 16t16.5 6h39q9 0 16 -6t7 -16v-54q0 -9 -7 -15t-16 -6h-39q-9 0 -16.5 6t-7.5 15v54zM658 86q9 0 21.5 1t23 4.5t18 11t7.5 20.5v262
q0 8 5.5 13.5t13.5 5.5h47q8 0 13 -5.5t5 -13.5v-275q3 -8 12.5 -12.5t21 -7t23.5 -3.5t20 -1h16v-86h-11q-14 0 -30.5 1t-33.5 5t-33 10t-27 17q-26 -22 -65.5 -27.5t-81.5 -5.5h-252q-96 0 -157.5 18.5t-97 53t-49 84t-13.5 110.5q0 21 1.5 43.5t6.5 51.5q3 19 20 19h42
q17 0 15 -20q-2 -23 -3 -39t-1 -33q0 -45 8 -82t33.5 -64t73 -41.5t126.5 -14.5h282z" />
    <glyph glyph-name="TehMed" unicode="&#x62a;" horiz-adv-x="286" arabic-form="medial" 
d="M-40 73q0 6 10 9.5t24 3.5h45q10 0 22 1t23 4.5t18.5 11t7.5 20.5v262q0 8 5.5 13.5t13.5 5.5h46q8 0 13.5 -5.5t5.5 -13.5v-275q3 -8 12.5 -12.5t21 -7t23.5 -3.5t21 -1h14v-86h-12q-31 0 -66.5 6.5t-58.5 26.5q-25 -20 -59.5 -26.5t-62.5 -6.5h-33q-14 0 -24 3.5
t-10 10.5v59zM25 609q0 10 6.5 16t16.5 6h39q10 0 16.5 -6t6.5 -16v-54q0 -9 -7 -15t-16 -6h-39q-10 0 -16.5 6t-6.5 15v54zM188 609q0 10 7.5 16t16.5 6h39q9 0 16 -6t7 -16v-54q0 -9 -7 -15t-16 -6h-39q-9 0 -16.5 6t-7.5 15v54z" />
    <glyph glyph-name="ThehSep" unicode="&#x62b;" horiz-adv-x="891" arabic-form="isolated" 
d="M313 549q0 10 6.5 16.5t16.5 6.5h39q10 0 16.5 -6.5t6.5 -16.5v-50q0 -9 -7 -15t-16 -6h-39q-10 0 -16.5 6t-6.5 15v50zM476 549q0 10 7.5 16.5t16.5 6.5h39q9 0 16 -6.5t7 -16.5v-50q0 -9 -7 -15t-16 -6h-39q-9 0 -16.5 6t-7.5 15v50zM397 673q0 9 7 15t16 6h37
q9 0 16 -6t7 -15v-45q0 -10 -7.5 -15.5t-16.5 -5.5h-37q-9 0 -15.5 5.5t-6.5 15.5v45zM683 86q28 0 36 5t8 31v66v62t-0.5 63.5t-1.5 71.5q0 8 5 13.5t13 5.5h47q9 0 14 -5.5t5 -13.5q1 -34 1.5 -57t0.5 -43v-41.5v-51.5q0 -48 -0.5 -89t-3.5 -64q-2 -10 -6.5 -17t-16.5 -12
q-8 -3 -26.5 -4.5t-43 -3t-53 -2t-56.5 -0.5h-234q-96 0 -157.5 18.5t-97 53t-49 84t-13.5 110.5q0 21 1.5 43.5t6.5 51.5q3 19 20 19h42q17 0 15 -20q-2 -23 -3 -39t-1 -33q0 -45 8 -82t33.5 -64t73 -41.5t126.5 -14.5h307z" />
    <glyph glyph-name="ThehFin" unicode="&#x62b;" horiz-adv-x="905" arabic-form="final" 
d="M313 549q0 10 6.5 16.5t16.5 6.5h39q10 0 16.5 -6.5t6.5 -16.5v-50q0 -9 -7 -15t-16 -6h-39q-10 0 -16.5 6t-6.5 15v50zM476 549q0 10 7.5 16.5t16.5 6.5h39q9 0 16 -6.5t7 -16.5v-50q0 -9 -7 -15t-16 -6h-39q-9 0 -16.5 6t-7.5 15v50zM397 673q0 9 7 15t16 6h37
q9 0 16 -6t7 -15v-45q0 -10 -7.5 -15.5t-16.5 -5.5h-37q-9 0 -15.5 5.5t-6.5 15.5v45zM658 86q9 0 21.5 1t23 4.5t18 11t7.5 20.5v262q0 8 5.5 13.5t13.5 5.5h47q8 0 13 -5.5t5 -13.5v-275q3 -8 12.5 -12.5t21 -7t23.5 -3.5t20 -1h16v-86h-11q-14 0 -30.5 1t-33.5 5t-33 10
t-27 17q-26 -22 -65.5 -27.5t-81.5 -5.5h-252q-96 0 -157.5 18.5t-97 53t-49 84t-13.5 110.5q0 21 1.5 43.5t6.5 51.5q3 19 20 19h42q17 0 15 -20q-2 -23 -3 -39t-1 -33q0 -45 8 -82t33.5 -64t73 -41.5t126.5 -14.5h282z" />
    <glyph glyph-name="ThehMed" unicode="&#x62b;" horiz-adv-x="286" arabic-form="medial" 
d="M-40 73q0 6 10 9.5t24 3.5h45q10 0 22 1t23 4.5t18.5 11t7.5 20.5v262q0 8 5.5 13.5t13.5 5.5h46q8 0 13.5 -5.5t5.5 -13.5v-275q3 -8 12.5 -12.5t21 -7t23.5 -3.5t21 -1h14v-86h-12q-31 0 -66.5 6.5t-58.5 26.5q-25 -20 -59.5 -26.5t-62.5 -6.5h-33q-14 0 -24 3.5
t-10 10.5v59zM24 605q0 10 6.5 16.5t16.5 6.5h39q10 0 16.5 -6.5t6.5 -16.5v-50q0 -9 -7 -15t-16 -6h-39q-10 0 -16.5 6t-6.5 15v50zM187 605q0 10 7.5 16.5t16.5 6.5h39q9 0 16 -6.5t7 -16.5v-50q0 -9 -7 -15t-16 -6h-39q-9 0 -16.5 6t-7.5 15v50zM108 729q0 9 7 15t16 6
h37q9 0 16 -6t7 -15v-45q0 -10 -7.5 -15.5t-16.5 -5.5h-37q-9 0 -15.5 5.5t-6.5 15.5v45z" />
    <glyph glyph-name="TtehSep" unicode="&#x679;" horiz-adv-x="891" arabic-form="isolated" 
d="M510 512q4 0 4 6v19q0 26 -16.5 36.5t-51.5 10.5q-7 0 -26 -1t-39 -3v-68h129zM300 500q0 8 5 10t13 2h19v176q0 13 13 13h17q14 0 14 -13v-69q17 3 38 5t32 2q21 0 40.5 -4.5t34 -14.5t23.5 -26.5t9 -40.5v-13q0 -9 -0.5 -22t-2.5 -23q-2 -9 -11 -9q-15 -1 -36.5 -1
h-32.5h-157q-8 0 -13 2t-5 10v16zM683 86q28 0 36 5t8 31v66v62t-0.5 63.5t-1.5 71.5q0 8 5 13.5t13 5.5h47q9 0 14 -5.5t5 -13.5q1 -34 1.5 -57t0.5 -43v-41.5v-51.5q0 -48 -0.5 -89t-3.5 -64q-2 -10 -6.5 -17t-16.5 -12q-8 -3 -26.5 -4.5t-43 -3t-53 -2t-56.5 -0.5h-234
q-96 0 -157.5 18.5t-97 53t-49 84t-13.5 110.5q0 21 1.5 43.5t6.5 51.5q3 19 20 19h42q17 0 15 -20q-2 -23 -3 -39t-1 -33q0 -45 8 -82t33.5 -64t73 -41.5t126.5 -14.5h307z" />
    <glyph glyph-name="TtehFin" unicode="&#x679;" horiz-adv-x="905" arabic-form="final" 
d="M510 512q4 0 4 6v19q0 26 -16.5 36.5t-51.5 10.5q-7 0 -26 -1t-39 -3v-68h129zM300 500q0 8 5 10t13 2h19v176q0 13 13 13h17q14 0 14 -13v-69q17 3 38 5t32 2q21 0 40.5 -4.5t34 -14.5t23.5 -26.5t9 -40.5v-13q0 -9 -0.5 -22t-2.5 -23q-2 -9 -11 -9q-15 -1 -36.5 -1
h-32.5h-157q-8 0 -13 2t-5 10v16zM658 86q9 0 21.5 1t23 4.5t18 11t7.5 20.5v262q0 8 5.5 13.5t13.5 5.5h47q8 0 13 -5.5t5 -13.5v-275q3 -8 12.5 -12.5t21 -7t23.5 -3.5t20 -1h16v-86h-11q-14 0 -30.5 1t-33.5 5t-33 10t-27 17q-26 -22 -65.5 -27.5t-81.5 -5.5h-252
q-96 0 -157.5 18.5t-97 53t-49 84t-13.5 110.5q0 21 1.5 43.5t6.5 51.5q3 19 20 19h42q17 0 15 -20q-2 -23 -3 -39t-1 -33q0 -45 8 -82t33.5 -64t73 -41.5t126.5 -14.5h282z" />
    <glyph glyph-name="TtehMed" unicode="&#x679;" horiz-adv-x="286" arabic-form="medial" 
d="M-40 73q0 6 10 9.5t24 3.5h45q10 0 22 1t23 4.5t18.5 11t7.5 20.5v262q0 8 5.5 13.5t13.5 5.5h46q8 0 13.5 -5.5t5.5 -13.5v-275q3 -8 12.5 -12.5t21 -7t23.5 -3.5t21 -1h14v-86h-12q-31 0 -66.5 6.5t-58.5 26.5q-25 -20 -59.5 -26.5t-62.5 -6.5h-33q-14 0 -24 3.5
t-10 10.5v59zM227 568q4 0 4 6v19q0 26 -16.5 36.5t-51.5 10.5q-7 0 -26 -1t-39 -3v-68h129zM17 556q0 8 5 10t13 2h19v176q0 13 13 13h17q14 0 14 -13v-69q17 3 38 5t32 2q21 0 40.5 -4.5t34 -14.5t23.5 -26.5t9 -40.5v-13q0 -9 -0.5 -22t-2.5 -23q-2 -9 -11 -9
q-15 -1 -36.5 -1h-32.5h-157q-8 0 -13 2t-5 10v16z" />
    <glyph glyph-name="NoonMed" unicode="&#x646;" horiz-adv-x="286" arabic-form="medial" 
d="M-40 73q0 6 10 9.5t24 3.5h45q10 0 22 1t23 4.5t18.5 11t7.5 20.5v262q0 8 5.5 13.5t13.5 5.5h46q8 0 13.5 -5.5t5.5 -13.5v-275q3 -8 12.5 -12.5t21 -7t23.5 -3.5t21 -1h14v-86h-12q-31 0 -66.5 6.5t-58.5 26.5q-25 -20 -59.5 -26.5t-62.5 -6.5h-33q-14 0 -24 3.5
t-10 10.5v59zM108 609q0 10 7 16t16 6h44q9 0 15.5 -6t6.5 -16v-54q0 -9 -6.5 -15t-16.5 -6h-43q-10 0 -16.5 6t-6.5 15v54z" />
    <glyph glyph-name="YehMed" unicode="&#x64a;" horiz-adv-x="286" arabic-form="medial" 
d="M-40 73q0 6 10 9.5t24 3.5h45q10 0 22 1t23 4.5t18.5 11t7.5 20.5v262q0 8 5.5 13.5t13.5 5.5h46q8 0 13.5 -5.5t5.5 -13.5v-275q3 -8 12.5 -12.5t21 -7t23.5 -3.5t21 -1h14v-86h-12q-31 0 -66.5 6.5t-58.5 26.5q-25 -20 -59.5 -26.5t-62.5 -6.5h-33q-14 0 -24 3.5
t-10 10.5v59zM13 -115q0 10 6.5 16t16.5 6h39q10 0 16.5 -6t6.5 -16v-54q0 -8 -7 -14.5t-16 -6.5h-39q-10 0 -16.5 6.5t-6.5 14.5v54zM176 -115q0 10 7.5 16t16.5 6h39q9 0 16 -6t7 -16v-54q0 -8 -7 -14.5t-16 -6.5h-39q-9 0 -16.5 6.5t-7.5 14.5v54z" />
    <glyph glyph-name="YehFarsiMed" unicode="&#x6cc;" horiz-adv-x="286" arabic-form="medial" 
d="M-40 73q0 6 10 9.5t24 3.5h45q10 0 22 1t23 4.5t18.5 11t7.5 20.5v262q0 8 5.5 13.5t13.5 5.5h46q8 0 13.5 -5.5t5.5 -13.5v-275q3 -8 12.5 -12.5t21 -7t23.5 -3.5t21 -1h14v-86h-12q-31 0 -66.5 6.5t-58.5 26.5q-25 -20 -59.5 -26.5t-62.5 -6.5h-33q-14 0 -24 3.5
t-10 10.5v59zM13 -115q0 10 6.5 16t16.5 6h39q10 0 16.5 -6t6.5 -16v-54q0 -8 -7 -14.5t-16 -6.5h-39q-10 0 -16.5 6.5t-6.5 14.5v54zM176 -115q0 10 7.5 16t16.5 6h39q9 0 16 -6t7 -16v-54q0 -8 -7 -14.5t-16 -6.5h-39q-9 0 -16.5 6.5t-7.5 14.5v54z" />
    <glyph glyph-name="YehHamzaAboveMed" unicode="&#x626;" horiz-adv-x="286" arabic-form="medial" 
d="M-40 73q0 6 10 9.5t24 3.5h45q10 0 22 1t23 4.5t18.5 11t7.5 20.5v262q0 8 5.5 13.5t13.5 5.5h46q8 0 13.5 -5.5t5.5 -13.5v-275q3 -8 12.5 -12.5t21 -7t23.5 -3.5t21 -1h14v-86h-12q-31 0 -66.5 6.5t-58.5 26.5q-25 -20 -59.5 -26.5t-62.5 -6.5h-33q-14 0 -24 3.5
t-10 10.5v59zM75 528q-18 0 -18 12v17q0 10 18 10h17q-9 11 -13 26.5t-4 30.5q0 42 24.5 61.5t69.5 19.5q8 0 18 -1t20 -3q11 -4 11 -12v-14q0 -11 -13 -11q-2 0 -14 0.5t-17 0.5q-53 0 -53 -45q0 -21 7 -34.5t15 -17.5h67q17 0 17 -12v-16q0 -8 -4.5 -10t-12.5 -2h-135z
" />
    <glyph glyph-name="AlefMaqsuraMed" unicode="&#x649;" horiz-adv-x="286" arabic-form="medial" 
d="M-40 73q0 6 10 9.5t24 3.5h45q10 0 22 1t23 4.5t18.5 11t7.5 20.5v262q0 8 5.5 13.5t13.5 5.5h46q8 0 13.5 -5.5t5.5 -13.5v-275q3 -8 12.5 -12.5t21 -7t23.5 -3.5t21 -1h14v-86h-12q-31 0 -66.5 6.5t-58.5 26.5q-25 -20 -59.5 -26.5t-62.5 -6.5h-33q-14 0 -24 3.5
t-10 10.5v59z" />
    <glyph glyph-name="NoonGhunnaSep" unicode="&#x6ba;" horiz-adv-x="625" arabic-form="isolated" 
d="M127 276q16 0 15 -20q-1 -12 -2.5 -25.5t-2.5 -27t-1.5 -25.5t-0.5 -20q0 -52 7.5 -96.5t32 -77t70 -51t121.5 -18.5q26 0 47.5 1t46.5 6q0 27 0.5 48.5t0.5 40.5v37v39v298q0 8 5.5 13.5t12.5 5.5h49q7 0 12 -5.5t5 -13.5v-379v-32.5t-0.5 -38t-1 -38t-1.5 -32.5
q0 -9 -5 -13.5t-16 -7.5q-38 -8 -77.5 -11.5t-79.5 -3.5q-87 0 -146.5 19.5t-96 57.5t-52.5 93.5t-16 126.5q0 9 1 25.5t2.5 35.5t3.5 37.5t5 32.5q2 11 6 15t14 4h42z" />
    <glyph glyph-name="NoonGhunnaFin" unicode="&#x6ba;" horiz-adv-x="638" arabic-form="final" 
d="M127 276q16 0 15 -20q-1 -12 -2.5 -25.5t-2.5 -27t-1.5 -25.5t-0.5 -20q0 -52 7.5 -96.5t32 -77t70 -51t121.5 -18.5q26 0 47.5 1t46.5 6q0 27 0.5 48.5t0.5 40.5v37v39v298q0 8 5.5 13.5t12.5 5.5h49q8 0 12.5 -5.5t4.5 -13.5v-299h93v-86h-93v-33.5v-37t-0.5 -35.5
t-1.5 -29q0 -16 -21 -21q-38 -8 -78 -11.5t-80 -3.5q-87 0 -146.5 19.5t-96 57.5t-52.5 93.5t-16 126.5q0 9 1 25.5t2.5 35.5t3.5 37.5t5 32.5q2 11 6 15t14 4h42z" />
    <glyph glyph-name="NoonSep" unicode="&#x646;" horiz-adv-x="625" arabic-form="isolated" 
d="M260 544q0 10 7 16t16 6h44q9 0 15.5 -6t6.5 -16v-54q0 -9 -6.5 -15t-16.5 -6h-43q-10 0 -16.5 6t-6.5 15v54zM127 276q16 0 15 -20q-1 -12 -2.5 -25.5t-2.5 -27t-1.5 -25.5t-0.5 -20q0 -52 7.5 -96.5t32 -77t70 -51t121.5 -18.5q26 0 47.5 1t46.5 6q0 27 0.5 48.5
t0.5 40.5v37v39v298q0 8 5.5 13.5t12.5 5.5h49q7 0 12 -5.5t5 -13.5v-379v-32.5t-0.5 -38t-1 -38t-1.5 -32.5q0 -9 -5 -13.5t-16 -7.5q-38 -8 -77.5 -11.5t-79.5 -3.5q-87 0 -146.5 19.5t-96 57.5t-52.5 93.5t-16 126.5q0 9 1 25.5t2.5 35.5t3.5 37.5t5 32.5q2 11 6 15t14 4
h42z" />
    <glyph glyph-name="NoonFin" unicode="&#x646;" horiz-adv-x="638" arabic-form="final" 
d="M260 544q0 10 7 16t16 6h44q9 0 15.5 -6t6.5 -16v-54q0 -9 -6.5 -15t-16.5 -6h-43q-10 0 -16.5 6t-6.5 15v54zM127 276q16 0 15 -20q-1 -12 -2.5 -25.5t-2.5 -27t-1.5 -25.5t-0.5 -20q0 -52 7.5 -96.5t32 -77t70 -51t121.5 -18.5q26 0 47.5 1t46.5 6q0 27 0.5 48.5
t0.5 40.5v37v39v298q0 8 5.5 13.5t12.5 5.5h49q8 0 12.5 -5.5t4.5 -13.5v-299h93v-86h-93v-33.5v-37t-0.5 -35.5t-1.5 -29q0 -16 -21 -21q-38 -8 -78 -11.5t-80 -3.5q-87 0 -146.5 19.5t-96 57.5t-52.5 93.5t-16 126.5q0 9 1 25.5t2.5 35.5t3.5 37.5t5 32.5q2 11 6 15t14 4
h42z" />
    <glyph glyph-name="BehIni" unicode="&#x628;" horiz-adv-x="275" arabic-form="initial" 
d="M29 -115q0 10 7 16t16 6h43q9 0 16 -6t7 -16v-54q0 -8 -7 -14.5t-16 -6.5h-43q-9 0 -16 6.5t-7 14.5v54zM-40 73q0 6 10 9.5t24 3.5h70q29 0 37 5t8 31v66v62t-0.5 64t-1.5 72q0 8 4.5 13.5t12.5 5.5h48q9 0 14 -5.5t5 -13.5q1 -34 1.5 -57t0.5 -43.5v-42v-51.5
q0 -48 -0.5 -89t-3.5 -64q-2 -10 -6.5 -17t-16.5 -12q-8 -3 -22 -4.5t-32 -3t-37 -2t-36 -0.5h-45q-14 0 -24 3.5t-10 10.5v59z" />
    <glyph glyph-name="PehIni" unicode="&#x67e;" horiz-adv-x="275" arabic-form="initial" 
d="M-40 73q0 6 10 9.5t24 3.5h70q29 0 37 5t8 31v66v62t-0.5 64t-1.5 72q0 8 4.5 13.5t12.5 5.5h48q9 0 14 -5.5t5 -13.5q1 -34 1.5 -57t0.5 -43.5v-42v-51.5q0 -48 -0.5 -89t-3.5 -64q-2 -10 -6.5 -17t-16.5 -12q-8 -3 -22 -4.5t-32 -3t-37 -2t-36 -0.5h-45q-14 0 -24 3.5
t-10 10.5v59zM-36 -114q0 9 6.5 15t16.5 6h39q9 0 16 -6t7 -15v-50q0 -11 -7 -16.5t-16 -5.5h-39q-10 0 -16.5 5.5t-6.5 16.5v50zM127 -114q0 9 7.5 15t16.5 6h39q9 0 16 -6t7 -15v-50q0 -11 -7 -16.5t-16 -5.5h-39q-10 0 -17 5.5t-7 16.5v50zM46 -242q0 9 7 15t16 6h37
q10 0 16.5 -6t6.5 -15v-45q0 -10 -7 -16t-17 -6h-37q-9 0 -15.5 6t-6.5 16v45z" />
    <glyph glyph-name="TehIni" unicode="&#x62a;" horiz-adv-x="275" arabic-form="initial" 
d="M20 609q0 10 6.5 16t16.5 6h39q10 0 16.5 -6t6.5 -16v-54q0 -9 -7 -15t-16 -6h-39q-10 0 -16.5 6t-6.5 15v54zM183 609q0 10 7.5 16t16.5 6h39q9 0 16 -6t7 -16v-54q0 -9 -7 -15t-16 -6h-39q-9 0 -16.5 6t-7.5 15v54zM-40 73q0 6 10 9.5t24 3.5h70q29 0 37 5t8 31v66v62
t-0.5 64t-1.5 72q0 8 4.5 13.5t12.5 5.5h48q9 0 14 -5.5t5 -13.5q1 -34 1.5 -57t0.5 -43.5v-42v-51.5q0 -48 -0.5 -89t-3.5 -64q-2 -10 -6.5 -17t-16.5 -12q-8 -3 -22 -4.5t-32 -3t-37 -2t-36 -0.5h-45q-14 0 -24 3.5t-10 10.5v59z" />
    <glyph glyph-name="ThehIni" unicode="&#x62b;" horiz-adv-x="275" arabic-form="initial" 
d="M20 605q0 10 6.5 16.5t16.5 6.5h39q10 0 16.5 -6.5t6.5 -16.5v-50q0 -9 -7 -15t-16 -6h-39q-10 0 -16.5 6t-6.5 15v50zM183 605q0 10 7.5 16.5t16.5 6.5h39q9 0 16 -6.5t7 -16.5v-50q0 -9 -7 -15t-16 -6h-39q-9 0 -16.5 6t-7.5 15v50zM104 729q0 9 7 15t16 6h37
q9 0 16 -6t7 -15v-45q0 -10 -7.5 -15.5t-16.5 -5.5h-37q-9 0 -15.5 5.5t-6.5 15.5v45zM-40 73q0 6 10 9.5t24 3.5h70q29 0 37 5t8 31v66v62t-0.5 64t-1.5 72q0 8 4.5 13.5t12.5 5.5h48q9 0 14 -5.5t5 -13.5q1 -34 1.5 -57t0.5 -43.5v-42v-51.5q0 -48 -0.5 -89t-3.5 -64
q-2 -10 -6.5 -17t-16.5 -12q-8 -3 -22 -4.5t-32 -3t-37 -2t-36 -0.5h-45q-14 0 -24 3.5t-10 10.5v59z" />
    <glyph glyph-name="TtehIni" unicode="&#x679;" horiz-adv-x="275" arabic-form="initial" 
d="M222 568q4 0 4 6v19q0 26 -16.5 36.5t-51.5 10.5q-7 0 -26 -1t-39 -3v-68h129zM12 556q0 8 5 10t13 2h19v176q0 13 13 13h17q14 0 14 -13v-69q17 3 38 5t32 2q21 0 40.5 -4.5t34 -14.5t23.5 -26.5t9 -40.5v-13q0 -9 -0.5 -22t-2.5 -23q-2 -9 -11 -9q-15 -1 -36.5 -1
h-32.5h-157q-8 0 -13 2t-5 10v16zM-40 73q0 6 10 9.5t24 3.5h70q29 0 37 5t8 31v66v62t-0.5 64t-1.5 72q0 8 4.5 13.5t12.5 5.5h48q9 0 14 -5.5t5 -13.5q1 -34 1.5 -57t0.5 -43.5v-42v-51.5q0 -48 -0.5 -89t-3.5 -64q-2 -10 -6.5 -17t-16.5 -12q-8 -3 -22 -4.5t-32 -3
t-37 -2t-36 -0.5h-45q-14 0 -24 3.5t-10 10.5v59z" />
    <glyph glyph-name="NoonIni" unicode="&#x646;" horiz-adv-x="275" arabic-form="initial" 
d="M102 609q0 10 7 16t16 6h44q9 0 15.5 -6t6.5 -16v-54q0 -9 -6.5 -15t-16.5 -6h-43q-10 0 -16.5 6t-6.5 15v54zM-40 73q0 6 10 9.5t24 3.5h70q29 0 37 5t8 31v66v62t-0.5 64t-1.5 72q0 8 4.5 13.5t12.5 5.5h48q9 0 14 -5.5t5 -13.5q1 -34 1.5 -57t0.5 -43.5v-42v-51.5
q0 -48 -0.5 -89t-3.5 -64q-2 -10 -6.5 -17t-16.5 -12q-8 -3 -22 -4.5t-32 -3t-37 -2t-36 -0.5h-45q-14 0 -24 3.5t-10 10.5v59z" />
    <glyph glyph-name="YehIni" unicode="&#x64a;" horiz-adv-x="275" arabic-form="initial" 
d="M-40 73q0 6 10 9.5t24 3.5h70q29 0 37 5t8 31v66v62t-0.5 64t-1.5 72q0 8 4.5 13.5t12.5 5.5h48q9 0 14 -5.5t5 -13.5q1 -34 1.5 -57t0.5 -43.5v-42v-51.5q0 -48 -0.5 -89t-3.5 -64q-2 -10 -6.5 -17t-16.5 -12q-8 -3 -22 -4.5t-32 -3t-37 -2t-36 -0.5h-45q-14 0 -24 3.5
t-10 10.5v59zM-36 -115q0 10 6.5 16t16.5 6h39q10 0 16.5 -6t6.5 -16v-54q0 -8 -7 -14.5t-16 -6.5h-39q-10 0 -16.5 6.5t-6.5 14.5v54zM127 -115q0 10 7.5 16t16.5 6h39q9 0 16 -6t7 -16v-54q0 -8 -7 -14.5t-16 -6.5h-39q-9 0 -16.5 6.5t-7.5 14.5v54z" />
    <glyph glyph-name="YehFarsiIni" unicode="&#x6cc;" horiz-adv-x="275" arabic-form="initial" 
d="M-40 73q0 6 10 9.5t24 3.5h70q29 0 37 5t8 31v66v62t-0.5 64t-1.5 72q0 8 4.5 13.5t12.5 5.5h48q9 0 14 -5.5t5 -13.5q1 -34 1.5 -57t0.5 -43.5v-42v-51.5q0 -48 -0.5 -89t-3.5 -64q-2 -10 -6.5 -17t-16.5 -12q-8 -3 -22 -4.5t-32 -3t-37 -2t-36 -0.5h-45q-14 0 -24 3.5
t-10 10.5v59zM-36 -115q0 10 6.5 16t16.5 6h39q10 0 16.5 -6t6.5 -16v-54q0 -8 -7 -14.5t-16 -6.5h-39q-10 0 -16.5 6.5t-6.5 14.5v54zM127 -115q0 10 7.5 16t16.5 6h39q9 0 16 -6t7 -16v-54q0 -8 -7 -14.5t-16 -6.5h-39q-9 0 -16.5 6.5t-7.5 14.5v54z" />
    <glyph glyph-name="YehHamzaAboveIni" unicode="&#x626;" horiz-adv-x="275" arabic-form="initial" 
d="M-40 73q0 6 10 9.5t24 3.5h70q29 0 37 5t8 31v66v62t-0.5 64t-1.5 72q0 8 4.5 13.5t12.5 5.5h48q9 0 14 -5.5t5 -13.5q1 -34 1.5 -57t0.5 -43.5v-42v-51.5q0 -48 -0.5 -89t-3.5 -64q-2 -10 -6.5 -17t-16.5 -12q-8 -3 -22 -4.5t-32 -3t-37 -2t-36 -0.5h-45q-14 0 -24 3.5
t-10 10.5v59zM73 528q-18 0 -18 12v17q0 10 18 10h17q-9 11 -13 26.5t-4 30.5q0 42 24.5 61.5t69.5 19.5q8 0 18 -1t20 -3q11 -4 11 -12v-14q0 -11 -13 -11q-2 0 -14 0.5t-17 0.5q-53 0 -53 -45q0 -21 7 -34.5t15 -17.5h67q17 0 17 -12v-16q0 -8 -4.5 -10t-12.5 -2h-135z
" />
    <glyph glyph-name="AlefMaqsuraIni" unicode="&#x649;" horiz-adv-x="275" arabic-form="initial" 
d="M-40 73q0 6 10 9.5t24 3.5h70q29 0 37 5t8 31v66v62t-0.5 64t-1.5 72q0 8 4.5 13.5t12.5 5.5h48q9 0 14 -5.5t5 -13.5q1 -34 1.5 -57t0.5 -43.5v-42v-51.5q0 -48 -0.5 -89t-3.5 -64q-2 -10 -6.5 -17t-16.5 -12q-8 -3 -22 -4.5t-32 -3t-37 -2t-36 -0.5h-45q-14 0 -24 3.5
t-10 10.5v59z" />
    <glyph glyph-name="HahSep" unicode="&#x62d;" horiz-adv-x="600" arabic-form="isolated" 
d="M56 -30q0 19 2 47.5t4 44.5q2 10 6.5 15.5t15.5 5.5q6 0 17 0.5t24.5 1t27.5 0.5h25h286l-38 88l-22 52q-17 38 -37.5 66.5t-47 47t-60 28t-76.5 9.5q-4 0 -12.5 -0.5t-19.5 -1.5t-22 -1.5t-20 -1.5q-21 -2 -21 15v40q0 8 3.5 12.5t14.5 6.5q43 9 89 9q49 0 91.5 -9.5
t80 -35t70.5 -70t62 -114.5l11 -25l42 -108q2 -7 3.5 -14t1.5 -18v-36q0 -11 -6 -17.5t-23 -6.5h-307h-40t-41 -1q0 -7 -0.5 -19.5t-0.5 -17.5q1 -36 9 -63t26 -45t47.5 -27t74.5 -9h10q18 0 18 -17v-38q0 -18 -20 -19q-5 -1 -13.5 -1h-11.5q-119 0 -171 58t-52 169z" />
    <glyph glyph-name="HahFin" unicode="&#x62d;" horiz-adv-x="580" arabic-form="final" 
d="M56 -30q0 19 2 47.5t4 44.5q2 10 6.5 15.5t15.5 5.5q6 0 17 0.5t24.5 1t27.5 0.5h25h289l-37 87l-23 53q-33 76 -85.5 113.5t-139.5 37.5q-4 0 -12.5 -0.5t-19 -1.5t-21.5 -1.5t-20 -1.5q-21 -2 -21 15v40q0 8 3.5 12.5t14.5 6.5q43 9 89 9q50 0 93.5 -9.5t82 -35t71 -70
t61.5 -114.5l11 -26l40 -101q4 -8 8 -10t11 -2h7v-86h-359h-40.5t-40.5 -1q0 -7 -0.5 -19.5t-0.5 -17.5q1 -36 8.5 -63t25 -45t46.5 -27t71 -9h16q18 0 18 -17v-38q0 -18 -20 -19q-5 -1 -13.5 -1h-11.5q-119 0 -171 58t-52 169z" />
    <glyph glyph-name="HahMed" unicode="&#x62d;" horiz-adv-x="572" arabic-form="medial" 
d="M-6 0q-16 0 -25 4.5t-9 9.5v59q0 6 10 9.5t24 3.5h464l-36 86l-23 53q-33 77 -87.5 114t-148.5 37q-8 0 -31 -1.5t-40 -3.5q-22 -2 -22 14v41q0 8 4 12.5t15 6.5q21 5 46.5 7t48.5 2q50 0 94 -9.5t83 -35t72 -70t62 -114.5l11 -26l40 -101q5 -8 8 -10t11 -2h7v-86h-578z
" />
    <glyph glyph-name="HahIni" unicode="&#x62d;" horiz-adv-x="595" arabic-form="initial" 
d="M-40 73q0 6 10 9.5t24 3.5h464l-36 86l-23 53q-33 76 -87.5 113.5t-148.5 37.5q-4 0 -12.5 -0.5t-19 -1.5t-21 -1.5t-18.5 -1.5q-22 -2 -22 14v41q0 8 4 12.5t15 6.5q22 5 49.5 7t45.5 2q50 0 94 -9.5t83 -35t72 -70t62 -114.5l10 -26l42 -107q2 -7 3.5 -14t1.5 -18v-36
q0 -11 -6 -17.5t-23 -6.5h-529q-15 0 -24.5 4.5t-9.5 9.5v59z" />
    <glyph glyph-name="JeemSep" unicode="&#x62c;" horiz-adv-x="600" arabic-form="isolated" 
d="M56 -30q0 19 2 48t4 45q2 10 6.5 15.5t15.5 5.5q6 0 17 0.5t24.5 1t27.5 0.5h25h286l-38 87l-22 52q-17 38 -37.5 66.5t-47 47t-60 28t-76.5 9.5q-4 0 -12.5 -0.5t-19.5 -1.5t-22 -1.5t-20 -1.5q-21 -2 -21 15v40q0 8 3.5 12.5t14.5 6.5q43 9 89 9q49 0 91.5 -9.5t80 -35
t70.5 -70t62 -114.5l11 -25l42 -108q2 -7 3.5 -14t1.5 -18v-36q0 -11 -6 -17.5t-23 -6.5h-307h-40t-41 -1q-1 -13 -1 -22.5v-14.5q3 -144 124 -144h4q18 0 18 -17v-38q0 -9 -3 -13t-14 -6q-6 -1 -10 -1h-6q-96 0 -146 57.5t-50 169.5zM299 -82q0 10 7 16t16 6h38
q9 0 16.5 -6t7.5 -16v-46q0 -9 -7.5 -15.5t-16.5 -6.5h-38q-9 0 -16 6.5t-7 15.5v46z" />
    <glyph glyph-name="JeemFin" unicode="&#x62c;" horiz-adv-x="580" arabic-form="final" 
d="M56 -30q0 19 2 48t4 45q2 10 6.5 15.5t15.5 5.5q6 0 17 0.5t24.5 1t27.5 0.5h25h287l-37 86l-23 53q-33 76 -84 113.5t-137 37.5q-4 0 -13 -0.5t-20 -1.5t-22 -1.5t-20 -1.5q-21 -2 -21 15v40q0 8 3.5 12.5t14.5 6.5q43 9 89 9q50 0 93 -9.5t80.5 -35t70 -70t61.5 -114.5
l11 -25l41 -102q4 -8 8 -10t11 -2h9v-86h-359h-40.5t-40.5 -1q-1 -14 -1 -23v-14q3 -144 124 -144h4q18 0 18 -17v-38q0 -9 -3 -13t-14 -6q-5 -1 -9.5 -1h-6.5q-96 0 -146 57.5t-50 169.5zM299 -82q0 10 7 16t16 6h38q9 0 16.5 -6t7.5 -16v-46q0 -9 -7.5 -15.5t-16.5 -6.5
h-38q-9 0 -16 6.5t-7 15.5v46z" />
    <glyph glyph-name="JeemMed" unicode="&#x62c;" horiz-adv-x="572" arabic-form="medial" 
d="M-6 0q-16 0 -25 4.5t-9 9.5v59q0 6 10 9.5t24 3.5h464l-36 86l-23 53q-33 77 -87.5 114t-148.5 37q-8 0 -31 -1.5t-40 -3.5q-22 -2 -22 14v41q0 8 4 12.5t15 6.5q21 5 46.5 7t48.5 2q50 0 94 -9.5t83 -35t72 -70t62 -114.5l11 -26l40 -101q5 -8 8 -10t11 -2h7v-86h-578z
M202 -115q0 10 7 16t16 6h43q9 0 16 -6t7 -16v-54q0 -8 -7 -14.5t-16 -6.5h-43q-9 0 -16 6.5t-7 14.5v54z" />
    <glyph glyph-name="JeemIni" unicode="&#x62c;" horiz-adv-x="595" arabic-form="initial" 
d="M202 -115q0 10 7 16t16 6h43q9 0 16 -6t7 -16v-54q0 -8 -7 -14.5t-16 -6.5h-43q-9 0 -16 6.5t-7 14.5v54zM-40 73q0 6 10 9.5t24 3.5h464l-36 86l-23 53q-33 76 -87.5 113.5t-148.5 37.5q-4 0 -12.5 -0.5t-19 -1.5t-21 -1.5t-18.5 -1.5q-22 -2 -22 14v41q0 8 4 12.5
t15 6.5q22 5 49.5 7t45.5 2q50 0 94 -9.5t83 -35t72 -70t62 -114.5l10 -26l42 -107q2 -7 3.5 -14t1.5 -18v-36q0 -11 -6 -17.5t-23 -6.5h-529q-15 0 -24.5 4.5t-9.5 9.5v59z" />
    <glyph glyph-name="KhahSep" unicode="&#x62e;" horiz-adv-x="600" arabic-form="isolated" 
d="M56 -30q0 19 2 47.5t4 44.5q2 10 6.5 15.5t15.5 5.5q6 0 17 0.5t24.5 1t27.5 0.5h25h286l-38 88l-22 52q-17 38 -37.5 66.5t-47 47t-60 28t-76.5 9.5q-4 0 -12.5 -0.5t-19.5 -1.5t-22 -1.5t-20 -1.5q-21 -2 -21 15v40q0 8 3.5 12.5t14.5 6.5q43 9 89 9q49 0 91.5 -9.5
t80 -35t70.5 -70t62 -114.5l11 -25l42 -108q2 -7 3.5 -14t1.5 -18v-36q0 -11 -6 -17.5t-23 -6.5h-307h-40t-41 -1q0 -7 -0.5 -19.5t-0.5 -17.5q1 -36 9 -63t26 -45t47.5 -27t74.5 -9h10q18 0 18 -17v-38q0 -18 -20 -19q-5 -1 -13.5 -1h-11.5q-119 0 -171 58t-52 169z
M206 637q0 10 7 16t16 6h44q9 0 15.5 -6t6.5 -16v-54q0 -9 -6.5 -15t-16.5 -6h-43q-10 0 -16.5 6t-6.5 15v54z" />
    <glyph glyph-name="KhahFin" unicode="&#x62e;" horiz-adv-x="580" arabic-form="final" 
d="M207 637q0 10 7 16t16 6h44q9 0 15.5 -6t6.5 -16v-54q0 -9 -6.5 -15t-16.5 -6h-43q-10 0 -16.5 6t-6.5 15v54zM56 -30q0 19 2 47.5t4 44.5q2 10 6.5 15.5t15.5 5.5q6 0 17 0.5t24.5 1t27.5 0.5h25h289l-37 87l-23 53q-33 76 -85.5 113.5t-139.5 37.5q-4 0 -12.5 -0.5
t-19 -1.5t-21.5 -1.5t-20 -1.5q-21 -2 -21 15v40q0 8 3.5 12.5t14.5 6.5q43 9 89 9q50 0 93.5 -9.5t82 -35t71 -70t61.5 -114.5l11 -26l40 -101q4 -8 8 -10t11 -2h7v-86h-359h-40.5t-40.5 -1q0 -7 -0.5 -19.5t-0.5 -17.5q1 -36 8.5 -63t25 -45t46.5 -27t71 -9h16
q18 0 18 -17v-38q0 -18 -20 -19q-5 -1 -13.5 -1h-11.5q-119 0 -171 58t-52 169z" />
    <glyph glyph-name="KhahMed" unicode="&#x62e;" horiz-adv-x="572" arabic-form="medial" 
d="M-6 0q-16 0 -25 4.5t-9 9.5v59q0 6 10 9.5t24 3.5h464l-36 86l-23 53q-33 77 -87.5 114t-148.5 37q-8 0 -31 -1.5t-40 -3.5q-22 -2 -22 14v41q0 8 4 12.5t15 6.5q21 5 46.5 7t48.5 2q50 0 94 -9.5t83 -35t72 -70t62 -114.5l11 -26l40 -101q5 -8 8 -10t11 -2h7v-86h-578z
M194 637q0 10 7 16t16 6h44q9 0 15.5 -6t6.5 -16v-54q0 -9 -6.5 -15t-16.5 -6h-43q-10 0 -16.5 6t-6.5 15v54z" />
    <glyph glyph-name="KhahIni" unicode="&#x62e;" horiz-adv-x="595" arabic-form="initial" 
d="M194 637q0 10 7 16t16 6h44q9 0 15.5 -6t6.5 -16v-54q0 -9 -6.5 -15t-16.5 -6h-43q-10 0 -16.5 6t-6.5 15v54zM-40 73q0 6 10 9.5t24 3.5h464l-36 86l-23 53q-33 76 -87.5 113.5t-148.5 37.5q-4 0 -12.5 -0.5t-19 -1.5t-21 -1.5t-18.5 -1.5q-22 -2 -22 14v41q0 8 4 12.5
t15 6.5q22 5 49.5 7t45.5 2q50 0 94 -9.5t83 -35t72 -70t62 -114.5l10 -26l42 -107q2 -7 3.5 -14t1.5 -18v-36q0 -11 -6 -17.5t-23 -6.5h-529q-15 0 -24.5 4.5t-9.5 9.5v59z" />
    <glyph glyph-name="TchehSep" unicode="&#x686;" horiz-adv-x="625" arabic-form="isolated" 
d="M56 -24q0 19 2 45t6 41q2 10 6 15t15 6q6 1 17 1.5t24 0.5h27h25h309l-38 88l-22 52q-17 38 -37 66.5t-46.5 47t-62 28t-82.5 9.5q-12 0 -30.5 -1.5t-39.5 -3.5q-22 -3 -22 14v41q0 8 4 12.5t15 6.5q21 5 44 7t42 2q52 0 96.5 -9.5t83 -35.5t70.5 -71t61 -115l10 -24
q3 -8 9 -23.5t12.5 -32t12.5 -31t9 -21.5t4.5 -13.5t1.5 -17.5v-36q0 -24 -29 -24h-335h-41t-41 -1q-1 -9 -1 -21v-18q0 -133 100 -142q11 -1 18 -4t7 -17v-38q0 -11 -6.5 -14.5t-19.5 -3.5q-34 0 -66.5 10t-58.5 37q-29 29 -41 77t-12 111zM261 -76q0 9 6.5 15t14.5 6h36
q9 0 16 -6t7 -15v-43q0 -10 -7 -15.5t-16 -5.5h-36q-8 0 -14.5 5.5t-6.5 15.5v43zM413 -76q0 9 6.5 15t15.5 6h37q8 0 14.5 -6t6.5 -15v-43q0 -10 -6.5 -15.5t-14.5 -5.5h-37q-9 0 -15.5 5.5t-6.5 15.5v43zM336 -193q0 8 7 14t15 6h37q8 0 14.5 -6t6.5 -14v-40
q0 -8 -6.5 -14t-14.5 -6h-37q-9 0 -15.5 6t-6.5 14v40z" />
    <glyph glyph-name="TchehFin" unicode="&#x686;" horiz-adv-x="601" arabic-form="final" 
d="M56 -24q0 19 2 45t6 41q2 10 6 15t15 6q6 1 17 1.5t24 0.5h27h25h308l-38 88l-22 52q-17 38 -36.5 66.5t-46 47t-62 28t-82.5 9.5q-12 0 -30.5 -1.5t-39.5 -3.5q-22 -3 -22 14v41q0 8 4 12.5t15 6.5q21 5 44 7t42 2q52 0 96.5 -10t82.5 -35.5t70.5 -70t60.5 -113.5
l11 -27l40 -100q4 -8 7.5 -10t11.5 -2h9v-86h-383h-41t-41 -1q-1 -9 -1 -21v-18q0 -133 100 -142q11 -1 18 -4t7 -17v-38q0 -11 -6.5 -14.5t-19.5 -3.5q-34 0 -66.5 10t-58.5 37q-29 29 -41 76.5t-12 111.5zM413 -76q0 9 6.5 15t15.5 6h37q8 0 14.5 -6t6.5 -15v-43
q0 -10 -6.5 -15.5t-14.5 -5.5h-37q-9 0 -15.5 5.5t-6.5 15.5v43zM261 -76q0 9 6.5 15t14.5 6h36q9 0 16 -6t7 -15v-43q0 -10 -7 -15.5t-16 -5.5h-36q-8 0 -14.5 5.5t-6.5 15.5v43zM336 -193q0 8 7 14t15 6h37q8 0 14.5 -6t6.5 -14v-40q0 -8 -6.5 -14t-14.5 -6h-37
q-9 0 -15.5 6t-6.5 14v40z" />
    <glyph glyph-name="TchehMed" unicode="&#x686;" horiz-adv-x="572" arabic-form="medial" 
d="M-6 0q-16 0 -25 4.5t-9 9.5v59q0 6 10 9.5t24 3.5h464l-36 86l-23 53q-33 77 -87.5 114t-148.5 37q-8 0 -31 -1.5t-40 -3.5q-22 -2 -22 14v41q0 8 4 12.5t15 6.5q21 5 46.5 7t48.5 2q50 0 94 -9.5t83 -35t72 -70t62 -114.5l11 -26l40 -101q5 -8 8 -10t11 -2h7v-86h-578z
M137 -114q0 9 6.5 15t16.5 6h39q9 0 16 -6t7 -15v-50q0 -11 -7 -16.5t-16 -5.5h-39q-10 0 -16.5 5.5t-6.5 16.5v50zM300 -114q0 9 7.5 15t16.5 6h39q9 0 16 -6t7 -15v-50q0 -11 -7 -16.5t-16 -5.5h-39q-10 0 -17 5.5t-7 16.5v50zM219 -242q0 9 7 15t16 6h37q10 0 16.5 -6
t6.5 -15v-45q0 -10 -7 -16t-17 -6h-37q-9 0 -15.5 6t-6.5 16v45z" />
    <glyph glyph-name="TchehIni" unicode="&#x686;" horiz-adv-x="595" arabic-form="initial" 
d="M-40 73q0 6 10 9.5t24 3.5h464l-36 86l-23 53q-33 76 -87.5 113.5t-148.5 37.5q-4 0 -12.5 -0.5t-19 -1.5t-21 -1.5t-18.5 -1.5q-22 -2 -22 14v41q0 8 4 12.5t15 6.5q22 5 49.5 7t45.5 2q50 0 94 -9.5t83 -35t72 -70t62 -114.5l10 -26l42 -107q2 -7 3.5 -14t1.5 -18v-36
q0 -11 -6 -17.5t-23 -6.5h-529q-15 0 -24.5 4.5t-9.5 9.5v59zM137 -114q0 9 6.5 15t16.5 6h39q9 0 16 -6t7 -15v-50q0 -11 -7 -16.5t-16 -5.5h-39q-10 0 -16.5 5.5t-6.5 16.5v50zM300 -114q0 9 7.5 15t16.5 6h39q9 0 16 -6t7 -15v-50q0 -11 -7 -16.5t-16 -5.5h-39
q-10 0 -17 5.5t-7 16.5v50zM219 -242q0 9 7 15t16 6h37q10 0 16.5 -6t6.5 -15v-45q0 -10 -7 -16t-17 -6h-37q-9 0 -15.5 6t-6.5 16v45z" />
    <glyph glyph-name="DalSep" unicode="&#x62f;" horiz-adv-x="485" arabic-form="isolated" 
d="M46 68q0 8 6 13t14 5h273l-1 123q-2 88 -44.5 131t-137.5 43q-11 0 -31 -0.5t-35 -2.5q-20 -2 -20 14v41q0 8 4.5 13t15.5 6q26 4 49.5 5t34.5 1q68 0 114.5 -18t75.5 -51t42 -78t15 -99q0 -4 0.5 -20t1 -35t0.5 -36v-23v-17.5t-0.5 -22t-1 -22.5t-1.5 -18q0 -20 -22 -20
h-332q-8 0 -14 4.5t-6 12.5v51z" />
    <glyph glyph-name="DalFin" unicode="&#x62f;" horiz-adv-x="489" arabic-form="final" 
d="M46 68q0 8 6 13t14 5h273l-1 123q-2 88 -44 131t-137 43q-11 0 -31.5 -0.5t-35.5 -2.5q-20 -2 -20 14v41q0 8 4.5 13t15.5 6q26 4 49.5 5t34.5 1q67 0 114 -18t76 -51t42.5 -78t15.5 -99l1 -128h66v-86h-423q-8 0 -14 4.5t-6 12.5v51z" />
    <glyph glyph-name="ThalSep" unicode="&#x630;" horiz-adv-x="485" arabic-form="isolated" 
d="M46 68q0 8 6 13t14 5h273l-1 123q-2 88 -44.5 131t-137.5 43q-11 0 -31 -0.5t-35 -2.5q-20 -2 -20 14v41q0 8 4.5 13t15.5 6q26 4 49.5 5t34.5 1q68 0 114.5 -18t75.5 -51t42 -78t15 -99q0 -4 0.5 -20t1 -35t0.5 -36v-23v-17.5t-0.5 -22t-1 -22.5t-1.5 -18q0 -20 -22 -20
h-332q-8 0 -14 4.5t-6 12.5v51zM175 649q0 10 7 16t16 6h44q9 0 15.5 -6t6.5 -16v-54q0 -9 -6.5 -15t-16.5 -6h-43q-10 0 -16.5 6t-6.5 15v54z" />
    <glyph glyph-name="ThalFin" unicode="&#x630;" horiz-adv-x="489" arabic-form="final" 
d="M175 649q0 10 7 16t16 6h44q9 0 15.5 -6t6.5 -16v-54q0 -9 -6.5 -15t-16.5 -6h-43q-10 0 -16.5 6t-6.5 15v54zM46 68q0 8 6 13t14 5h273l-1 123q-2 88 -44 131t-137 43q-11 0 -31.5 -0.5t-35.5 -2.5q-20 -2 -20 14v41q0 8 4.5 13t15.5 6q26 4 49.5 5t34.5 1q67 0 114 -18
t76 -51t42.5 -78t15.5 -99l1 -128h66v-86h-423q-8 0 -14 4.5t-6 12.5v51z" />
    <glyph glyph-name="DdalSep" unicode="&#x688;" horiz-adv-x="485" arabic-form="isolated" 
d="M46 68q0 8 6 13t14 5h273l-1 123q-2 88 -44.5 131t-137.5 43q-11 0 -31 -0.5t-35 -2.5q-20 -2 -20 14v41q0 8 4.5 13t15.5 6q26 4 49.5 5t34.5 1q68 0 114.5 -18t75.5 -51t42 -78t15 -99q0 -4 0.5 -20t1 -35t0.5 -36v-23v-17.5t-0.5 -22t-1 -22.5t-1.5 -18q0 -20 -22 -20
h-332q-8 0 -14 4.5t-6 12.5v51zM298 617q4 0 4 6v19q0 26 -16.5 36.5t-51.5 10.5q-7 0 -26 -1t-39 -3v-68h129zM88 605q0 8 5 10t13 2h19v176q0 13 13 13h17q14 0 14 -13v-69q17 3 38 5t32 2q21 0 40.5 -4.5t34 -14.5t23.5 -26.5t9 -40.5v-13q0 -9 -0.5 -22t-2.5 -23
q-2 -9 -11 -9q-15 -1 -36.5 -1h-32.5h-157q-8 0 -13 2t-5 10v16z" />
    <glyph glyph-name="DdalFin" unicode="&#x688;" horiz-adv-x="489" arabic-form="final" 
d="M298 617q4 0 4 6v19q0 26 -16.5 36.5t-51.5 10.5q-7 0 -26 -1t-39 -3v-68h129zM88 605q0 8 5 10t13 2h19v176q0 13 13 13h17q14 0 14 -13v-69q17 3 38 5t32 2q21 0 40.5 -4.5t34 -14.5t23.5 -26.5t9 -40.5v-13q0 -9 -0.5 -22t-2.5 -23q-2 -9 -11 -9q-15 -1 -36.5 -1
h-32.5h-157q-8 0 -13 2t-5 10v16zM46 68q0 8 6 13t14 5h273l-1 123q-2 88 -44 131t-137 43q-11 0 -31.5 -0.5t-35.5 -2.5q-20 -2 -20 14v41q0 8 4.5 13t15.5 6q26 4 49.5 5t34.5 1q67 0 114 -18t76 -51t42.5 -78t15.5 -99l1 -128h66v-86h-423q-8 0 -14 4.5t-6 12.5v51z" />
    <glyph glyph-name="RehSep" unicode="&#x631;" horiz-adv-x="277" arabic-form="isolated" 
d="M-36 -170q0 14 17 14h21q33 0 54 3t34 13t18 29.5t5 52.5v443q0 8 5 13.5t13 5.5h49q7 0 12 -5.5t5 -13.5v-437q0 -34 -3.5 -64t-16.5 -54q-20 -35 -55.5 -49t-93.5 -14q-5 0 -21.5 1t-26.5 3t-13 5.5t-3 10.5v43z" />
    <glyph glyph-name="RehFin" unicode="&#x631;" horiz-adv-x="289" arabic-form="final" 
d="M-36 -170q0 14 17 14h21q33 0 54 3t34 13t18 29.5t5 52.5v443q0 8 5 13.5t13 5.5h49q7 0 12 -5.5t5 -13.5v-299h92v-86h-93v-64q0 -32 -4 -59t-15 -47q-20 -35 -55.5 -49t-93.5 -14q-5 0 -21.5 1t-26.5 3t-13 5.5t-3 10.5v43z" />
    <glyph glyph-name="ZainSep" unicode="&#x632;" horiz-adv-x="277" arabic-form="isolated" 
d="M-36 -170q0 14 17 14h21q33 0 54 3t34 13t18 29.5t5 52.5v443q0 8 5 13.5t13 5.5h49q7 0 12 -5.5t5 -13.5v-437q0 -34 -3.5 -64t-16.5 -54q-20 -35 -55.5 -49t-93.5 -14q-5 0 -21.5 1t-26.5 3t-13 5.5t-3 10.5v43zM112 609q0 10 7 16t16 6h44q9 0 15.5 -6t6.5 -16v-54
q0 -9 -6.5 -15t-16.5 -6h-43q-10 0 -16.5 6t-6.5 15v54z" />
    <glyph glyph-name="ZainFin" unicode="&#x632;" horiz-adv-x="289" arabic-form="final" 
d="M-36 -170q0 14 17 14h21q33 0 54 3t34 13t18 29.5t5 52.5v443q0 8 5 13.5t13 5.5h49q7 0 12 -5.5t5 -13.5v-299h92v-86h-93v-64q0 -32 -4 -59t-15 -47q-20 -35 -55.5 -49t-93.5 -14q-5 0 -21.5 1t-26.5 3t-13 5.5t-3 10.5v43zM112 609q0 10 7 16t16 6h44q9 0 15.5 -6
t6.5 -16v-54q0 -9 -6.5 -15t-16.5 -6h-43q-10 0 -16.5 6t-6.5 15v54z" />
    <glyph glyph-name="JehSep" unicode="&#x698;" horiz-adv-x="277" arabic-form="isolated" 
d="M29 605q0 10 6.5 16.5t16.5 6.5h39q10 0 16.5 -6.5t6.5 -16.5v-50q0 -9 -7 -15t-16 -6h-39q-10 0 -16.5 6t-6.5 15v50zM192 605q0 10 7.5 16.5t16.5 6.5h39q9 0 16 -6.5t7 -16.5v-50q0 -9 -7 -15t-16 -6h-39q-9 0 -16.5 6t-7.5 15v50zM113 729q0 9 7 15t16 6h37
q9 0 16 -6t7 -15v-45q0 -10 -7.5 -15.5t-16.5 -5.5h-37q-9 0 -15.5 5.5t-6.5 15.5v45zM-36 -170q0 14 17 14h21q33 0 54 3t34 13t18 29.5t5 52.5v443q0 8 5 13.5t13 5.5h49q7 0 12 -5.5t5 -13.5v-437q0 -34 -3.5 -64t-16.5 -54q-20 -35 -55.5 -49t-93.5 -14q-5 0 -21.5 1
t-26.5 3t-13 5.5t-3 10.5v43z" />
    <glyph glyph-name="JehFin" unicode="&#x698;" horiz-adv-x="289" arabic-form="final" 
d="M29 605q0 10 6.5 16.5t16.5 6.5h39q10 0 16.5 -6.5t6.5 -16.5v-50q0 -9 -7 -15t-16 -6h-39q-10 0 -16.5 6t-6.5 15v50zM192 605q0 10 7.5 16.5t16.5 6.5h39q9 0 16 -6.5t7 -16.5v-50q0 -9 -7 -15t-16 -6h-39q-9 0 -16.5 6t-7.5 15v50zM113 729q0 9 7 15t16 6h37
q9 0 16 -6t7 -15v-45q0 -10 -7.5 -15.5t-16.5 -5.5h-37q-9 0 -15.5 5.5t-6.5 15.5v45zM-36 -170q0 14 17 14h21q33 0 54 3t34 13t18 29.5t5 52.5v443q0 8 5 13.5t13 5.5h49q7 0 12 -5.5t5 -13.5v-299h92v-86h-93v-64q0 -32 -4 -59t-15 -47q-20 -35 -55.5 -49t-93.5 -14
q-5 0 -21.5 1t-26.5 3t-13 5.5t-3 10.5v43z" />
    <glyph glyph-name="RrehSep" unicode="&#x691;" horiz-adv-x="277" arabic-form="isolated" 
d="M232 576q4 0 4 6v19q0 26 -16.5 36.5t-51.5 10.5q-7 0 -26 -1t-39 -3v-68h129zM22 564q0 8 5 10t13 2h19v176q0 13 13 13h17q14 0 14 -13v-69q17 3 38 5t32 2q21 0 40.5 -4.5t34 -14.5t23.5 -26.5t9 -40.5v-13q0 -9 -0.5 -22t-2.5 -23q-2 -9 -11 -9q-15 -1 -36.5 -1
h-32.5h-157q-8 0 -13 2t-5 10v16zM-36 -170q0 14 17 14h21q33 0 54 3t34 13t18 29.5t5 52.5v443q0 8 5 13.5t13 5.5h49q7 0 12 -5.5t5 -13.5v-437q0 -34 -3.5 -64t-16.5 -54q-20 -35 -55.5 -49t-93.5 -14q-5 0 -21.5 1t-26.5 3t-13 5.5t-3 10.5v43z" />
    <glyph glyph-name="RrehFin" unicode="&#x691;" horiz-adv-x="289" arabic-form="final" 
d="M232 576q4 0 4 6v19q0 26 -16.5 36.5t-51.5 10.5q-7 0 -26 -1t-39 -3v-68h129zM22 564q0 8 5 10t13 2h19v176q0 13 13 13h17q14 0 14 -13v-69q17 3 38 5t32 2q21 0 40.5 -4.5t34 -14.5t23.5 -26.5t9 -40.5v-13q0 -9 -0.5 -22t-2.5 -23q-2 -9 -11 -9q-15 -1 -36.5 -1
h-32.5h-157q-8 0 -13 2t-5 10v16zM-36 -170q0 14 17 14h21q33 0 54 3t34 13t18 29.5t5 52.5v443q0 8 5 13.5t13 5.5h49q7 0 12 -5.5t5 -13.5v-299h92v-86h-93v-64q0 -32 -4 -59t-15 -47q-20 -35 -55.5 -49t-93.5 -14q-5 0 -21.5 1t-26.5 3t-13 5.5t-3 10.5v43z" />
    <glyph glyph-name="SeenSep" unicode="&#x633;" horiz-adv-x="1100" arabic-form="isolated" 
d="M127 276q18 0 15 -20q-2 -12 -3 -25.5l-2 -27t-1.5 -25.5t-0.5 -20q0 -52 6.5 -96.5t29.5 -77t67 -51t120 -18.5q16 0 36.5 1t45.5 6q0 28 0.5 49.5t0.5 40v36.5v39v256q0 8 5.5 14t13.5 6h47q8 0 13 -6t5 -14v-235q7 -16 28.5 -20t38.5 -4h32q9 0 20.5 1.5t21.5 5
t16.5 10.5t6.5 19v253q0 8 5 13.5t13 5.5h47q8 0 13 -5.5t5 -13.5v-265q3 -8 12 -12.5t21.5 -7t27 -3.5t27.5 -1h30q29 0 37.5 4.5t8.5 31.5q0 70 -0.5 141.5t-1.5 149.5q0 8 5 13.5t13 5.5h46q9 0 14 -5.5t5 -13.5q1 -34 1.5 -61t1 -52t0.5 -50.5v-55.5v-36v-27t-1 -30.5
t-2 -30.5t-2 -27q-2 -11 -6 -18t-16 -12q-8 -3 -22 -5t-29 -3t-29.5 -1.5t-23.5 -0.5h-17q-35 0 -73.5 5.5t-66.5 26.5q-21 -17 -52 -24.5t-68 -7.5h-24q-17 0 -34 3t-29 12q0 -42 -0.5 -83.5t-2.5 -65.5q0 -17 -21 -22q-71 -16 -142 -16q-87 0 -146 19.5t-94.5 57
t-50.5 92.5t-15 126q0 10 1 26.5t2.5 35t3.5 37.5t5 34q3 19 20 19h42z" />
    <glyph glyph-name="SeenFin" unicode="&#x633;" horiz-adv-x="1118" arabic-form="final" 
d="M127 276q18 0 15 -20q-2 -12 -3 -25.5l-2 -27t-1.5 -25.5t-0.5 -20q0 -52 6.5 -96.5t29.5 -77t67 -51t120 -18.5q17 0 38 1t44 6q0 28 0.5 49.5t0.5 40v36.5v39v256q0 8 5.5 14t13.5 6h47q8 0 13 -6t5 -14v-235q3 -8 12.5 -12.5t21 -7t23.5 -3.5t21 -1h21q9 0 20.5 1.5
t21.5 5t16.5 10.5t6.5 19v253q0 8 5.5 13.5t12.5 5.5h47q8 0 13 -5.5t5 -13.5v-265q6 -16 30 -20t51 -4h12q10 0 22 1t22.5 4.5t18 11t7.5 19.5v291q0 8 5 13.5t13 5.5h48q8 0 13 -5.5t5 -13.5v-301q3 -8 13 -12.5t21.5 -7t23.5 -3.5t20 -1h21v-86h-18q-27 0 -62 6.5
t-60 26.5q-21 -20 -51 -26.5t-63 -6.5h-16q-36 0 -64 6.5t-52 26.5q-21 -17 -52.5 -24.5t-68.5 -7.5h-19q-14 0 -34.5 3t-32.5 12q0 -42 -0.5 -83.5t-2.5 -65.5q0 -10 -5.5 -14.5t-15.5 -7.5q-35 -8 -71 -12t-71 -4q-87 0 -146 19.5t-94.5 57t-50.5 92.5t-15 126
q0 10 1 26.5t2.5 35t3.5 37.5t5 34q3 19 20 19h42z" />
    <glyph glyph-name="SeenMed" unicode="&#x633;" horiz-adv-x="779" arabic-form="medial" 
d="M-40 73q0 6 10 9.5t24 3.5h38q10 0 22 1t22.5 4.5t18 11t7.5 20.5v216q0 8 5 14t13 6h46q8 0 13 -6t5 -14v-231q3 -8 12.5 -12.5t21 -7t23.5 -3.5t21 -1h21q9 0 20.5 1.5t21.5 5t17 10.5t7 19v253q0 8 5.5 13.5t13.5 5.5h46q8 0 13 -5.5t5 -13.5v-265q6 -16 30 -20t50 -4
h13q9 0 21.5 1t23.5 4.5t18.5 11t7.5 19.5v291q0 8 5.5 13.5t13.5 5.5h47q8 0 13 -5.5t5 -13.5v-301q3 -8 13 -12.5t22 -7t24 -3.5t21 -1h19v-86h-17q-27 0 -62 6.5t-61 26.5q-23 -20 -55 -26.5t-61 -6.5h-16q-35 0 -62.5 6.5t-54.5 26.5q-40 -33 -116 -33h-17
q-26 0 -57.5 6.5t-54.5 26.5q-12 -11 -27.5 -17t-31.5 -10t-31.5 -5t-28.5 -1h-32q-14 0 -24 3.5t-10 10.5v59z" />
    <glyph glyph-name="SeenIni" unicode="&#x633;" horiz-adv-x="760" arabic-form="initial" 
d="M-40 73q0 6 10 9.5t24 3.5h38q10 0 22 1t22.5 4.5t18 11t7.5 20.5v216q0 8 5 14t13 6h46q8 0 13 -6t5 -14v-231q3 -8 12.5 -12.5t21 -7t23.5 -3.5t21 -1h22q9 0 20.5 1.5t21 5t16.5 10.5t7 19v253q0 8 5.5 13.5t13.5 5.5h46q8 0 13 -5.5t5 -13.5v-265q3 -8 12 -12.5
t21.5 -7t26.5 -3.5t27 -1h32q15 0 23.5 0.5t13.5 4t6.5 10.5t1.5 21v141.5t-2 149.5q0 8 5 13.5t13 5.5h47q9 0 14 -5.5t5 -13.5q1 -34 1.5 -61t0.5 -52v-50.5v-55.5v-36v-27t-0.5 -30.5t-1.5 -30.5t-2 -27q-2 -11 -6.5 -18t-16.5 -12q-16 -5 -44.5 -7.5t-60.5 -2.5h-16
q-36 0 -72 6t-62 26q-20 -17 -50.5 -25t-65.5 -8h-17q-31 0 -63 6.5t-55 26.5q-24 -20 -58 -26.5t-65 -6.5h-30q-14 0 -24 3.5t-10 10.5v59z" />
    <glyph glyph-name="SheenSep" unicode="&#x634;" horiz-adv-x="1100" arabic-form="isolated" 
d="M127 276q18 0 15 -20q-2 -12 -3 -25.5l-2 -27t-1.5 -25.5t-0.5 -20q0 -52 6.5 -96.5t29.5 -77t67 -51t120 -18.5q16 0 36.5 1t45.5 6q0 28 0.5 49.5t0.5 40v36.5v39v256q0 8 5.5 14t13.5 6h47q8 0 13 -6t5 -14v-235q7 -16 28.5 -20t38.5 -4h32q9 0 20.5 1.5t21.5 5
t16.5 10.5t6.5 19v253q0 8 5 13.5t13 5.5h47q8 0 13 -5.5t5 -13.5v-265q3 -8 12 -12.5t21.5 -7t27 -3.5t27.5 -1h30q29 0 37.5 4.5t8.5 31.5q0 70 -0.5 141.5t-1.5 149.5q0 8 5 13.5t13 5.5h46q9 0 14 -5.5t5 -13.5q1 -34 1.5 -61t1 -52t0.5 -50.5v-55.5v-36v-27t-1 -30.5
t-2 -30.5t-2 -27q-2 -11 -6 -18t-16 -12q-8 -3 -22 -5t-29 -3t-29.5 -1.5t-23.5 -0.5h-17q-35 0 -73.5 5.5t-66.5 26.5q-21 -17 -52 -24.5t-68 -7.5h-24q-17 0 -34 3t-29 12q0 -42 -0.5 -83.5t-2.5 -65.5q0 -17 -21 -22q-71 -16 -142 -16q-87 0 -146 19.5t-94.5 57
t-50.5 92.5t-15 126q0 10 1 26.5t2.5 35t3.5 37.5t5 34q3 19 20 19h42zM599 580q0 10 6.5 16.5t16.5 6.5h39q10 0 16.5 -6.5t6.5 -16.5v-50q0 -9 -7 -15t-16 -6h-39q-10 0 -16.5 6t-6.5 15v50zM762 580q0 10 7.5 16.5t16.5 6.5h39q9 0 16 -6.5t7 -16.5v-50q0 -9 -7 -15
t-16 -6h-39q-9 0 -16.5 6t-7.5 15v50zM683 704q0 9 7 15t16 6h37q9 0 16 -6t7 -15v-45q0 -10 -7.5 -15.5t-16.5 -5.5h-37q-9 0 -15.5 5.5t-6.5 15.5v45z" />
    <glyph glyph-name="SheenFin" unicode="&#x634;" horiz-adv-x="1118" arabic-form="final" 
d="M600 580q0 10 6.5 16.5t16.5 6.5h39q10 0 16.5 -6.5t6.5 -16.5v-50q0 -9 -7 -15t-16 -6h-39q-10 0 -16.5 6t-6.5 15v50zM763 580q0 10 7.5 16.5t16.5 6.5h39q9 0 16 -6.5t7 -16.5v-50q0 -9 -7 -15t-16 -6h-39q-9 0 -16.5 6t-7.5 15v50zM684 704q0 9 7 15t16 6h37
q9 0 16 -6t7 -15v-45q0 -10 -7.5 -15.5t-16.5 -5.5h-37q-9 0 -15.5 5.5t-6.5 15.5v45zM127 276q18 0 15 -20q-2 -12 -3 -25.5l-2 -27t-1.5 -25.5t-0.5 -20q0 -52 6.5 -96.5t29.5 -77t67 -51t120 -18.5q17 0 38 1t44 6q0 28 0.5 49.5t0.5 40v36.5v39v256q0 8 5.5 14t13.5 6
h47q8 0 13 -6t5 -14v-235q3 -8 12.5 -12.5t21 -7t23.5 -3.5t21 -1h21q9 0 20.5 1.5t21.5 5t16.5 10.5t6.5 19v253q0 8 5.5 13.5t12.5 5.5h47q8 0 13 -5.5t5 -13.5v-265q6 -16 30 -20t51 -4h12q10 0 22 1t22.5 4.5t18 11t7.5 19.5v291q0 8 5 13.5t13 5.5h48q8 0 13 -5.5
t5 -13.5v-301q3 -8 13 -12.5t21.5 -7t23.5 -3.5t20 -1h21v-86h-18q-27 0 -62 6.5t-60 26.5q-21 -20 -51 -26.5t-63 -6.5h-16q-36 0 -64 6.5t-52 26.5q-21 -17 -52.5 -24.5t-68.5 -7.5h-19q-14 0 -34.5 3t-32.5 12q0 -42 -0.5 -83.5t-2.5 -65.5q0 -10 -5.5 -14.5t-15.5 -7.5
q-35 -8 -71 -12t-71 -4q-87 0 -146 19.5t-94.5 57t-50.5 92.5t-15 126q0 10 1 26.5t2.5 35t3.5 37.5t5 34q3 19 20 19h42z" />
    <glyph glyph-name="SheenMed" unicode="&#x634;" horiz-adv-x="779" arabic-form="medial" 
d="M259 580q0 10 6.5 16.5t16.5 6.5h39q10 0 16.5 -6.5t6.5 -16.5v-50q0 -9 -7 -15t-16 -6h-39q-10 0 -16.5 6t-6.5 15v50zM422 580q0 10 7.5 16.5t16.5 6.5h39q9 0 16 -6.5t7 -16.5v-50q0 -9 -7 -15t-16 -6h-39q-9 0 -16.5 6t-7.5 15v50zM343 704q0 9 7 15t16 6h37
q9 0 16 -6t7 -15v-45q0 -10 -7.5 -15.5t-16.5 -5.5h-37q-9 0 -15.5 5.5t-6.5 15.5v45zM-40 73q0 6 10 9.5t24 3.5h38q10 0 22 1t22.5 4.5t18 11t7.5 20.5v216q0 8 5 14t13 6h46q8 0 13 -6t5 -14v-231q3 -8 12.5 -12.5t21 -7t23.5 -3.5t21 -1h21q9 0 20.5 1.5t21.5 5t17 10.5
t7 19v253q0 8 5.5 13.5t13.5 5.5h46q8 0 13 -5.5t5 -13.5v-265q6 -16 30 -20t50 -4h13q9 0 21.5 1t23.5 4.5t18.5 11t7.5 19.5v291q0 8 5.5 13.5t13.5 5.5h47q8 0 13 -5.5t5 -13.5v-301q3 -8 13 -12.5t22 -7t24 -3.5t21 -1h19v-86h-17q-27 0 -62 6.5t-61 26.5
q-23 -20 -55 -26.5t-61 -6.5h-16q-35 0 -62.5 6.5t-54.5 26.5q-40 -33 -116 -33h-17q-26 0 -57.5 6.5t-54.5 26.5q-12 -11 -27.5 -17t-31.5 -10t-31.5 -5t-28.5 -1h-32q-14 0 -24 3.5t-10 10.5v59z" />
    <glyph glyph-name="SheenIni" unicode="&#x634;" horiz-adv-x="760" arabic-form="initial" 
d="M259 580q0 10 6.5 16.5t16.5 6.5h39q10 0 16.5 -6.5t6.5 -16.5v-50q0 -9 -7 -15t-16 -6h-39q-10 0 -16.5 6t-6.5 15v50zM422 580q0 10 7.5 16.5t16.5 6.5h39q9 0 16 -6.5t7 -16.5v-50q0 -9 -7 -15t-16 -6h-39q-9 0 -16.5 6t-7.5 15v50zM343 704q0 9 7 15t16 6h37
q9 0 16 -6t7 -15v-45q0 -10 -7.5 -15.5t-16.5 -5.5h-37q-9 0 -15.5 5.5t-6.5 15.5v45zM-40 73q0 6 10 9.5t24 3.5h38q10 0 22 1t22.5 4.5t18 11t7.5 20.5v216q0 8 5 14t13 6h46q8 0 13 -6t5 -14v-231q3 -8 12.5 -12.5t21 -7t23.5 -3.5t21 -1h22q9 0 20.5 1.5t21 5t16.5 10.5
t7 19v253q0 8 5.5 13.5t13.5 5.5h46q8 0 13 -5.5t5 -13.5v-265q3 -8 12 -12.5t21.5 -7t26.5 -3.5t27 -1h32q15 0 23.5 0.5t13.5 4t6.5 10.5t1.5 21v141.5t-2 149.5q0 8 5 13.5t13 5.5h47q9 0 14 -5.5t5 -13.5q1 -34 1.5 -61t0.5 -52v-50.5v-55.5v-36v-27t-0.5 -30.5
t-1.5 -30.5t-2 -27q-2 -11 -6.5 -18t-16.5 -12q-16 -5 -44.5 -7.5t-60.5 -2.5h-16q-36 0 -72 6t-62 26q-20 -17 -50.5 -25t-65.5 -8h-17q-31 0 -63 6.5t-55 26.5q-24 -20 -58 -26.5t-65 -6.5h-30q-14 0 -24 3.5t-10 10.5v59z" />
    <glyph glyph-name="SadSep" unicode="&#x635;" horiz-adv-x="1088" arabic-form="isolated" 
d="M53 133q0 9 1 26t3 36.5t4 38t5 30.5q2 11 6 15.5t14 4.5h43q17 0 16 -21q-3 -23 -5.5 -51t-2.5 -45q0 -53 6.5 -98.5t29.5 -80t67.5 -54t121.5 -19.5q17 0 39.5 1t46.5 6q0 28 0.5 49.5t0.5 40v36.5v39v351q0 8 6 14t14 6h46q8 0 13 -6t5 -14v-40q26 20 58 32.5t63 19
t58 8.5t44 2q64 0 113.5 -14t83.5 -45t51.5 -80t17.5 -119v-20q0 -16 -0.5 -36t-2 -40t-3.5 -39t-6 -32q-2 -10 -10 -19.5t-25 -11.5q-14 -2 -44.5 -2.5t-66 -1t-69.5 -0.5h-55h-207v-33t-0.5 -36.5t-1 -35t-1.5 -28.5q0 -10 -5.5 -14.5t-16.5 -7.5q-36 -8 -73.5 -12
t-72.5 -4q-88 0 -147.5 21t-95.5 60t-51 95.5t-15 127.5zM533 87q26 -2 52.5 -2h68.5h256q15 0 21.5 14.5t6.5 64.5v24q0 55 -12.5 91.5t-37.5 58t-63 30.5t-89 9q-14 0 -39 -2.5t-54.5 -8.5t-59 -16.5t-50.5 -27.5v-235z" />
    <glyph glyph-name="SadFin" unicode="&#x635;" horiz-adv-x="1094" arabic-form="final" 
d="M53 132q0 9 1 26.5t3 36.5l4 38t5 31q2 11 6 15.5t14 4.5h43q17 0 16 -21q-3 -23 -5.5 -51.5t-2.5 -45.5q0 -52 6.5 -98t29 -80t67 -53.5t121.5 -19.5q16 0 39.5 1t47.5 6q0 28 0.5 49.5t0.5 40v36.5v39v351q0 8 6 14t14 6h46q8 0 13 -6t5 -14v-40q26 20 58 32.5t63 19
t58 8.5t44 2q64 0 113.5 -14t83.5 -45t51.5 -80t17.5 -119v-15q0 -11 -0.5 -25.5t-1 -28.5t-2.5 -26.5t-5 -20.5h81v-86h-561v-33t-0.5 -36.5t-1 -35t-1.5 -28.5q0 -10 -5.5 -14.5t-16.5 -7.5q-36 -8 -74 -12t-73 -4q-88 0 -147 20.5t-95 59.5t-51 95.5t-15 127.5zM533 87
q26 -2 52.5 -2h68.5h257q14 0 20.5 16.5t6.5 69.5v17q0 55 -12.5 91.5t-37.5 58t-63 30.5t-89 9q-15 0 -40.5 -2.5t-54.5 -8.5t-58 -16.5t-50 -27.5v-235z" />
    <glyph glyph-name="SadMed" unicode="&#x635;" horiz-adv-x="753" arabic-form="medial" 
d="M-40 73q0 6 10 9.5t24 3.5h114v352q0 8 5.5 14t13.5 6h46q8 0 13.5 -6t5.5 -14v-40q26 20 58 32.5t63 19t58 8.5t44 2q64 0 113.5 -14t83.5 -45t51.5 -80t17.5 -119v-15v-25.5t-1 -28.5t-3 -26.5t-5 -20.5h81v-86h-759q-14 0 -24 3.5t-10 10.5v59zM192 86q25 -1 51.5 -1
h68.5h259q14 0 20 16.5t6 69.5v18q0 55 -12.5 91t-37.5 57.5t-63 30.5t-89 9q-15 0 -40.5 -2.5t-54.5 -8.5t-58 -16.5t-50 -27.5v-236z" />
    <glyph glyph-name="SadIni" unicode="&#x635;" horiz-adv-x="747" arabic-form="initial" 
d="M-40 73q0 6 10 9.5t24 3.5h114v352q0 8 5.5 14t13.5 6h46q8 0 13.5 -6t5.5 -14v-40q26 20 58 32.5t63 19t58 8.5t44 2q64 0 113.5 -14t83.5 -45t51.5 -80t17.5 -119v-20q0 -16 -0.5 -36t-1.5 -40t-3.5 -39t-6.5 -32q-3 -10 -10.5 -19.5t-25.5 -11.5q-14 -2 -44.5 -2.5
t-66 -1t-69 -0.5h-54.5h-405q-14 0 -24 3.5t-10 10.5v59zM192 87q25 -2 51.5 -2h68.5h258q7 0 12.5 3t8.5 12.5t4.5 26.5t1.5 44v18q0 55 -12.5 91t-37.5 57.5t-63 30.5t-89 9q-15 0 -40.5 -2.5t-54.5 -8.5t-58 -16.5t-50 -27.5v-235z" />
    <glyph glyph-name="DadSep" unicode="&#x636;" horiz-adv-x="1088" arabic-form="isolated" 
d="M688 650q0 10 7 16t16 6h44q9 0 15.5 -6t6.5 -16v-54q0 -9 -6.5 -15t-16.5 -6h-43q-10 0 -16.5 6t-6.5 15v54zM53 133q0 9 1 26t3 36.5t4 38t5 30.5q2 11 6 15.5t14 4.5h43q17 0 16 -21q-3 -23 -5.5 -51t-2.5 -45q0 -53 6.5 -98.5t29.5 -80t67.5 -54t121.5 -19.5
q17 0 39.5 1t46.5 6q0 28 0.5 49.5t0.5 40v36.5v39v351q0 8 6 14t14 6h46q8 0 13 -6t5 -14v-40q26 20 58 32.5t63 19t58 8.5t44 2q64 0 113.5 -14t83.5 -45t51.5 -80t17.5 -119v-20q0 -16 -0.5 -36t-2 -40t-3.5 -39t-6 -32q-2 -10 -10 -19.5t-25 -11.5q-14 -2 -44.5 -2.5
t-66 -1t-69.5 -0.5h-55h-207v-33t-0.5 -36.5t-1 -35t-1.5 -28.5q0 -10 -5.5 -14.5t-16.5 -7.5q-36 -8 -73.5 -12t-72.5 -4q-88 0 -147.5 21t-95.5 60t-51 95.5t-15 127.5zM533 87q26 -2 52.5 -2h68.5h256q15 0 21.5 14.5t6.5 64.5v24q0 55 -12.5 91.5t-37.5 58t-63 30.5
t-89 9q-14 0 -39 -2.5t-54.5 -8.5t-59 -16.5t-50.5 -27.5v-235z" />
    <glyph glyph-name="DadFin" unicode="&#x636;" horiz-adv-x="1094" arabic-form="final" 
d="M688 650q0 10 7 16t16 6h44q9 0 15.5 -6t6.5 -16v-54q0 -9 -6.5 -15t-16.5 -6h-43q-10 0 -16.5 6t-6.5 15v54zM53 132q0 9 1 26.5t3 36.5l4 38t5 31q2 11 6 15.5t14 4.5h43q17 0 16 -21q-3 -23 -5.5 -51.5t-2.5 -45.5q0 -52 6.5 -98t29 -80t67 -53.5t121.5 -19.5
q16 0 39.5 1t47.5 6q0 28 0.5 49.5t0.5 40v36.5v39v351q0 8 6 14t14 6h46q8 0 13 -6t5 -14v-40q26 20 58 32.5t63 19t58 8.5t44 2q64 0 113.5 -14t83.5 -45t51.5 -80t17.5 -119v-15q0 -11 -0.5 -25.5t-1 -28.5t-2.5 -26.5t-5 -20.5h81v-86h-561v-33t-0.5 -36.5t-1 -35
t-1.5 -28.5q0 -10 -5.5 -14.5t-16.5 -7.5q-36 -8 -74 -12t-73 -4q-88 0 -147 20.5t-95 59.5t-51 95.5t-15 127.5zM533 87q26 -2 52.5 -2h68.5h257q14 0 20.5 16.5t6.5 69.5v17q0 55 -12.5 91.5t-37.5 58t-63 30.5t-89 9q-15 0 -40.5 -2.5t-54.5 -8.5t-58 -16.5t-50 -27.5
v-235z" />
    <glyph glyph-name="DadMed" unicode="&#x636;" horiz-adv-x="753" arabic-form="medial" 
d="M-40 73q0 6 10 9.5t24 3.5h114v352q0 8 5.5 14t13.5 6h46q8 0 13.5 -6t5.5 -14v-40q26 20 58 32.5t63 19t58 8.5t44 2q64 0 113.5 -14t83.5 -45t51.5 -80t17.5 -119v-15v-25.5t-1 -28.5t-3 -26.5t-5 -20.5h81v-86h-759q-14 0 -24 3.5t-10 10.5v59zM192 86q25 -1 51.5 -1
h68.5h259q14 0 20 16.5t6 69.5v18q0 55 -12.5 91t-37.5 57.5t-63 30.5t-89 9q-15 0 -40.5 -2.5t-54.5 -8.5t-58 -16.5t-50 -27.5v-236zM347 650q0 10 7 16t16 6h44q9 0 15.5 -6t6.5 -16v-54q0 -9 -6.5 -15t-16.5 -6h-43q-10 0 -16.5 6t-6.5 15v54z" />
    <glyph glyph-name="DadIni" unicode="&#x636;" horiz-adv-x="747" arabic-form="initial" 
d="M349 650q0 10 7 16t16 6h44q9 0 15.5 -6t6.5 -16v-54q0 -9 -6.5 -15t-16.5 -6h-43q-10 0 -16.5 6t-6.5 15v54zM-40 73q0 6 10 9.5t24 3.5h114v352q0 8 5.5 14t13.5 6h46q8 0 13.5 -6t5.5 -14v-40q26 20 58 32.5t63 19t58 8.5t44 2q64 0 113.5 -14t83.5 -45t51.5 -80
t17.5 -119v-20q0 -16 -0.5 -36t-1.5 -40t-3.5 -39t-6.5 -32q-3 -10 -10.5 -19.5t-25.5 -11.5q-14 -2 -44.5 -2.5t-66 -1t-69 -0.5h-54.5h-405q-14 0 -24 3.5t-10 10.5v59zM192 87q25 -2 51.5 -2h68.5h258q7 0 12.5 3t8.5 12.5t4.5 26.5t1.5 44v18q0 55 -12.5 91t-37.5 57.5
t-63 30.5t-89 9q-15 0 -40.5 -2.5t-54.5 -8.5t-58 -16.5t-50 -27.5v-235z" />
    <glyph glyph-name="TahSep" unicode="&#x637;" horiz-adv-x="817" arabic-form="isolated" 
d="M42 69q0 8 6 12.5t14 4.5h114v646q0 8 5.5 13.5t13.5 5.5h49q8 0 13 -5.5t5 -13.5v-330q26 19 58 30.5t62.5 17.5t57.5 8t44 2q64 0 113.5 -14t83.5 -45t52 -79.5t18 -118.5v-21q0 -16 -0.5 -36t-1.5 -40t-3 -39t-6 -32q-3 -10 -11 -19.5t-26 -11.5q-14 -2 -44.5 -2.5
t-65.5 -1t-69 -0.5h-55h-407q-8 0 -14 4.5t-6 12.5v52zM639 85q7 0 12.5 3t9 12.5t5 26.5t1.5 44v17q0 55 -12.5 91.5t-37 58.5t-61.5 30.5t-86 8.5q-17 0 -44 -2t-56 -8t-58 -16t-50 -26v-238q26 -2 52.5 -2h67.5h257z" />
    <glyph glyph-name="TahFin" unicode="&#x637;" horiz-adv-x="823" arabic-form="final" 
d="M42 70q0 8 6 12t14 4h114v646q0 8 5.5 13.5t13.5 5.5h49q8 0 13 -5.5t5 -13.5v-330q26 19 58 30.5t62.5 17.5t57.5 8t44 2q64 0 113.5 -13.5t83.5 -44t52 -79.5t18 -120v-16q0 -11 -0.5 -25.5t-1 -28.5t-2.5 -26.5t-5 -20.5h81v-86h-761q-8 0 -14 4.5t-6 12.5v53zM640 85
q14 0 20.5 16.5t6.5 69.5v15q0 56 -12.5 93t-37 58.5t-61.5 30.5t-86 9q-15 0 -41.5 -2t-56.5 -8t-59.5 -16t-50.5 -26v-239q25 -1 50.5 -1h67.5h260z" />
    <glyph glyph-name="TahMed" unicode="&#x637;" horiz-adv-x="768" arabic-form="medial" 
d="M-40 73q0 6 10 9.5t24 3.5h127v646q0 8 5 13.5t13 5.5h49q8 0 13.5 -5.5t5.5 -13.5v-330q26 19 57.5 30.5t62.5 17.5t57.5 8t43.5 2q64 0 114 -14t84 -45t52 -79.5t18 -118.5v-16q0 -11 -0.5 -25.5t-1.5 -28.5t-3 -26.5t-5 -20.5h82v-86h-774q-14 0 -24 3.5t-10 10.5v59z
M586 85q14 0 20 16.5t6 69.5v17q0 55 -12.5 91.5t-37 58.5t-61.5 30.5t-86 8.5q-17 0 -44 -2t-56 -8t-58 -16t-50 -26v-239q25 -1 50.5 -1h66.5h262z" />
    <glyph glyph-name="TahIni" unicode="&#x637;" horiz-adv-x="761" arabic-form="initial" 
d="M-40 73q0 6 10 9.5t24 3.5h127v646q0 8 5 13.5t13 5.5h49q8 0 13.5 -5.5t5.5 -13.5v-330q26 19 58 30.5t62.5 17.5t57.5 8t44 2q64 0 114 -14t84 -45t51.5 -79.5t17.5 -118.5v-21q0 -16 -0.5 -36t-1.5 -40t-3 -39t-6 -32q-3 -10 -11 -19.5t-26 -11.5q-14 -2 -44.5 -2.5
t-66 -1t-69.5 -0.5h-55h-419q-14 0 -24 3.5t-10 10.5v59zM585 85q7 0 12.5 3t8.5 12.5t4.5 26.5t1.5 44v17q0 55 -12.5 91.5t-37 58.5t-61.5 30.5t-86 8.5q-17 0 -44 -2t-56 -8t-58 -16t-50 -26v-238q25 -2 51.5 -2h68.5h258z" />
    <glyph glyph-name="ZahSep" unicode="&#x638;" horiz-adv-x="817" arabic-form="isolated" 
d="M438 650q0 10 7 16t16 6h44q9 0 15.5 -6t6.5 -16v-54q0 -9 -6.5 -15t-16.5 -6h-43q-10 0 -16.5 6t-6.5 15v54zM42 69q0 8 6 12.5t14 4.5h114v646q0 8 5.5 13.5t13.5 5.5h49q8 0 13 -5.5t5 -13.5v-330q26 19 58 30.5t62.5 17.5t57.5 8t44 2q64 0 113.5 -14t83.5 -45
t52 -79.5t18 -118.5v-21q0 -16 -0.5 -36t-1.5 -40t-3 -39t-6 -32q-3 -10 -11 -19.5t-26 -11.5q-14 -2 -44.5 -2.5t-65.5 -1t-69 -0.5h-55h-407q-8 0 -14 4.5t-6 12.5v52zM639 85q7 0 12.5 3t9 12.5t5 26.5t1.5 44v17q0 55 -12.5 91.5t-37 58.5t-61.5 30.5t-86 8.5
q-17 0 -44 -2t-56 -8t-58 -16t-50 -26v-238q26 -2 52.5 -2h67.5h257z" />
    <glyph glyph-name="ZahFin" unicode="&#x638;" horiz-adv-x="823" arabic-form="final" 
d="M42 70q0 8 6 12t14 4h114v646q0 8 5.5 13.5t13.5 5.5h49q8 0 13 -5.5t5 -13.5v-330q26 19 58 30.5t62.5 17.5t57.5 8t44 2q64 0 113.5 -13.5t83.5 -44t52 -79.5t18 -120v-16q0 -11 -0.5 -25.5t-1 -28.5t-2.5 -26.5t-5 -20.5h81v-86h-761q-8 0 -14 4.5t-6 12.5v53zM640 85
q14 0 20.5 16.5t6.5 69.5v15q0 56 -12.5 93t-37 58.5t-61.5 30.5t-86 9q-15 0 -41.5 -2t-56.5 -8t-59.5 -16t-50.5 -26v-239q25 -1 50.5 -1h67.5h260zM438 650q0 10 7 16t16 6h44q9 0 15.5 -6t6.5 -16v-54q0 -9 -6.5 -15t-16.5 -6h-43q-10 0 -16.5 6t-6.5 15v54z" />
    <glyph glyph-name="ZahMed" unicode="&#x638;" horiz-adv-x="768" arabic-form="medial" 
d="M383 650q0 10 7 16t16 6h44q9 0 15.5 -6t6.5 -16v-54q0 -9 -6.5 -15t-16.5 -6h-43q-10 0 -16.5 6t-6.5 15v54zM-40 73q0 6 10 9.5t24 3.5h127v646q0 8 5 13.5t13 5.5h49q8 0 13.5 -5.5t5.5 -13.5v-330q26 19 57.5 30.5t62.5 17.5t57.5 8t43.5 2q64 0 114 -14t84 -45
t52 -79.5t18 -118.5v-16q0 -11 -0.5 -25.5t-1.5 -28.5t-3 -26.5t-5 -20.5h82v-86h-774q-14 0 -24 3.5t-10 10.5v59zM586 85q14 0 20 16.5t6 69.5v17q0 55 -12.5 91.5t-37 58.5t-61.5 30.5t-86 8.5q-17 0 -44 -2t-56 -8t-58 -16t-50 -26v-239q25 -1 50.5 -1h66.5h262z" />
    <glyph glyph-name="ZahIni" unicode="&#x638;" horiz-adv-x="761" arabic-form="initial" 
d="M-40 73q0 6 10 9.5t24 3.5h127v646q0 8 5 13.5t13 5.5h49q8 0 13.5 -5.5t5.5 -13.5v-330q26 19 58 30.5t62.5 17.5t57.5 8t44 2q64 0 114 -14t84 -45t51.5 -79.5t17.5 -118.5v-21q0 -16 -0.5 -36t-1.5 -40t-3 -39t-6 -32q-3 -10 -11 -19.5t-26 -11.5q-14 -2 -44.5 -2.5
t-66 -1t-69.5 -0.5h-55h-419q-14 0 -24 3.5t-10 10.5v59zM585 85q7 0 12.5 3t8.5 12.5t4.5 26.5t1.5 44v17q0 55 -12.5 91.5t-37 58.5t-61.5 30.5t-86 8.5q-17 0 -44 -2t-56 -8t-58 -16t-50 -26v-238q25 -2 51.5 -2h68.5h258zM383 650q0 10 7 16t16 6h44q9 0 15.5 -6
t6.5 -16v-54q0 -9 -6.5 -15t-16.5 -6h-43q-10 0 -16.5 6t-6.5 15v54z" />
    <glyph glyph-name="AinSep" unicode="&#x639;" horiz-adv-x="565" arabic-form="isolated" 
d="M333 -237q0 -18 -20 -19q-8 -1 -16.5 -1h-10.5q-62 0 -105.5 14.5t-70.5 43.5t-39.5 71t-12.5 98q0 19 1.5 46t3.5 44q3 21 22 21q4 0 15.5 0.5t26 0.5h28h22.5q-21 24 -34 63t-13 94v13q0 53 19 92.5t51.5 65t76.5 38t94 12.5q18 0 30 -0.5t23.5 -1t23 -2t27.5 -3.5
q11 -2 17.5 -5.5t6.5 -13.5v-40q0 -11 -7.5 -14.5t-15.5 -2.5q-31 2 -55.5 3t-40.5 1q-77 0 -121.5 -31.5t-44.5 -105.5v-13q0 -27 6 -51t16.5 -43t24 -32.5t27.5 -18.5h207q20 0 20 -18v-50q0 -8 -5.5 -13t-14.5 -5h-272h-40.5t-41.5 -1q0 -7 -0.5 -19.5t-0.5 -17.5
q1 -36 9 -62.5t26.5 -44t49 -26.5t76.5 -9h11q21 0 21 -17v-40z" />
    <glyph glyph-name="AinFin" unicode="&#x639;" horiz-adv-x="619" arabic-form="final" 
d="M312 -180q21 0 21 -17v-40q0 -18 -20 -19q-9 -1 -15.5 -1h-9.5q-125 0 -177.5 58t-52.5 169q0 9 0.5 21.5t1 25.5t1.5 25t2 21q2 9 6.5 15t15.5 6q12 1 34.5 1h44.5h30l-94 241q-2 3 -2.5 8t-0.5 9l1 29q1 8 5 13t12 13q35 30 93 48.5t118 18.5q49 0 90 -11t71 -34.5
t46.5 -60.5t16.5 -88v-19q0 -26 -5.5 -51.5t-14.5 -47.5t-21.5 -39.5t-26.5 -27.5h137v-86h-396h-40.5t-41.5 -1q0 -7 -0.5 -19.5t-0.5 -17.5q1 -36 9 -62.5t26.5 -44t49 -26.5t76.5 -9h11zM356 85q54 12 82.5 58.5t28.5 107.5v10q0 66 -37.5 95.5t-103.5 29.5
q-13 0 -30.5 -1t-37 -4.5t-39.5 -11.5t-39 -21l102 -263h74z" />
    <glyph glyph-name="AinMed" unicode="&#x639;" horiz-adv-x="569" arabic-form="medial" 
d="M-40 73q0 6 10 9.5t24 3.5h161l-94 240q-2 3 -2.5 8t-0.5 9l1 29q1 13 17 26q17 15 40.5 27.5t51.5 21t58 13.5t60 5q49 0 90.5 -11t71.5 -34.5t46.5 -60.5t16.5 -88v-19q0 -24 -5 -49t-14 -47.5t-21.5 -41t-27.5 -28.5h126v-86h-575q-14 0 -24 3.5t-10 10.5v59zM317 85
q52 12 81.5 58t29.5 107v11q0 66 -38 95.5t-104 29.5q-26 0 -67 -7t-78 -32l102 -262h74z" />
    <glyph glyph-name="AinIni" unicode="&#x639;" horiz-adv-x="502" arabic-form="initial" 
d="M-40 73q0 6 10 9.5t24 3.5h126q-20 22 -31.5 61t-11.5 93v11q0 53 17.5 92.5t49 65.5t74 38.5t92.5 12.5q20 0 43.5 -1t56.5 -6q11 -2 17 -5.5t6 -13.5v-40q0 -11 -7 -14.5t-15 -2.5q-25 2 -45 3t-46 1q-74 0 -116.5 -32.5t-42.5 -106.5v-12q0 -53 20.5 -93t49.5 -51h201
q8 0 14 -4.5t6 -12.5v-53q0 -8 -6 -12t-14 -4h-438q-14 0 -24 3.5t-10 10.5v59z" />
    <glyph glyph-name="GhainSep" unicode="&#x63a;" horiz-adv-x="565" arabic-form="isolated" 
d="M333 -237q0 -18 -20 -19q-8 -1 -16.5 -1h-10.5q-62 0 -105.5 14.5t-70.5 43.5t-39.5 71t-12.5 98q0 19 1.5 46t3.5 44q3 21 22 21q4 0 15.5 0.5t26 0.5h28h22.5q-21 24 -34 63t-13 94v13q0 53 19 92.5t51.5 65t76.5 38t94 12.5q18 0 30 -0.5t23.5 -1t23 -2t27.5 -3.5
q11 -2 17.5 -5.5t6.5 -13.5v-40q0 -11 -7.5 -14.5t-15.5 -2.5q-31 2 -55.5 3t-40.5 1q-77 0 -121.5 -31.5t-44.5 -105.5v-13q0 -27 6 -51t16.5 -43t24 -32.5t27.5 -18.5h207q20 0 20 -18v-50q0 -8 -5.5 -13t-14.5 -5h-272h-40.5t-41.5 -1q0 -7 -0.5 -19.5t-0.5 -17.5
q1 -36 9 -62.5t26.5 -44t49 -26.5t76.5 -9h11q21 0 21 -17v-40zM297 650q0 10 7 16t16 6h44q9 0 15.5 -6t6.5 -16v-54q0 -9 -6.5 -15t-16.5 -6h-43q-10 0 -16.5 6t-6.5 15v54z" />
    <glyph glyph-name="GhainFin" unicode="&#x63a;" horiz-adv-x="619" arabic-form="final" 
d="M312 -180q21 0 21 -17v-40q0 -18 -20 -19q-9 -1 -15.5 -1h-9.5q-125 0 -177.5 58t-52.5 169q0 9 0.5 21.5t1 25.5t1.5 25t2 21q2 9 6.5 15t15.5 6q12 1 34.5 1h44.5h30l-94 241q-2 3 -2.5 8t-0.5 9l1 29q1 8 5 13t12 13q35 30 93 48.5t118 18.5q49 0 90 -11t71 -34.5
t46.5 -60.5t16.5 -88v-19q0 -26 -5.5 -51.5t-14.5 -47.5t-21.5 -39.5t-26.5 -27.5h137v-86h-396h-40.5t-41.5 -1q0 -7 -0.5 -19.5t-0.5 -17.5q1 -36 9 -62.5t26.5 -44t49 -26.5t76.5 -9h11zM356 85q54 12 82.5 58.5t28.5 107.5v10q0 66 -37.5 95.5t-103.5 29.5
q-13 0 -30.5 -1t-37 -4.5t-39.5 -11.5t-39 -21l102 -263h74zM280 650q0 10 7 16t16 6h44q9 0 15.5 -6t6.5 -16v-54q0 -9 -6.5 -15t-16.5 -6h-43q-10 0 -16.5 6t-6.5 15v54z" />
    <glyph glyph-name="GhainMed" unicode="&#x63a;" horiz-adv-x="569" arabic-form="medial" 
d="M240 650q0 10 7 16t16 6h44q9 0 15.5 -6t6.5 -16v-54q0 -9 -6.5 -15t-16.5 -6h-43q-10 0 -16.5 6t-6.5 15v54zM-40 73q0 6 10 9.5t24 3.5h161l-94 240q-2 3 -2.5 8t-0.5 9l1 29q1 13 17 26q17 15 40.5 27.5t51.5 21t58 13.5t60 5q49 0 90.5 -11t71.5 -34.5t46.5 -60.5
t16.5 -88v-19q0 -24 -5 -49t-14 -47.5t-21.5 -41t-27.5 -28.5h126v-86h-575q-14 0 -24 3.5t-10 10.5v59zM317 85q52 12 81.5 58t29.5 107v11q0 66 -38 95.5t-104 29.5q-26 0 -67 -7t-78 -32l102 -262h74z" />
    <glyph glyph-name="GhainIni" unicode="&#x63a;" horiz-adv-x="502" arabic-form="initial" 
d="M-40 73q0 6 10 9.5t24 3.5h126q-20 22 -31.5 61t-11.5 93v11q0 53 17.5 92.5t49 65.5t74 38.5t92.5 12.5q20 0 43.5 -1t56.5 -6q11 -2 17 -5.5t6 -13.5v-40q0 -11 -7 -14.5t-15 -2.5q-25 2 -45 3t-46 1q-74 0 -116.5 -32.5t-42.5 -106.5v-12q0 -53 20.5 -93t49.5 -51h201
q8 0 14 -4.5t6 -12.5v-53q0 -8 -6 -12t-14 -4h-438q-14 0 -24 3.5t-10 10.5v59zM246 650q0 10 7 16t16 6h44q9 0 15.5 -6t6.5 -16v-54q0 -9 -6.5 -15t-16.5 -6h-43q-10 0 -16.5 6t-6.5 15v54z" />
    <glyph glyph-name="FehSep" unicode="&#x641;" horiz-adv-x="1023" arabic-form="isolated" 
d="M593 86q-20 22 -33 58.5t-13 87.5v22q0 99 62 155t170 56q41 0 81 -3.5t68 -11.5q9 -2 12 -6t3 -12v-262v-36.5t-0.5 -39t-1 -37.5t-1.5 -33q-1 -17 -23 -19q-42 -4 -81.5 -4.5t-77.5 -0.5h-385q-93 0 -154.5 17.5t-98 51.5t-51 83.5t-14.5 113.5q0 21 1.5 43t7.5 51
q2 11 6 15.5t13 4.5h42q18 0 15 -20q-2 -23 -2.5 -39t-0.5 -33q0 -48 9 -85.5t35.5 -63.5t73.5 -39.5t123 -13.5h215zM631 229q0 -70 31.5 -107.5t99.5 -37.5q23 0 49 0.5t48 2.5v294q-20 3 -40.5 4t-46.5 1q-69 0 -105 -35t-36 -100v-22zM718 650q0 10 7 16t16 6h44
q9 0 15.5 -6t6.5 -16v-54q0 -9 -6.5 -15t-16.5 -6h-43q-10 0 -16.5 6t-6.5 15v54z" />
    <glyph glyph-name="FehFin" unicode="&#x641;" horiz-adv-x="1029" arabic-form="final" 
d="M594 86q-20 22 -33.5 58.5t-13.5 87.5v21q0 99 62 155.5t170 56.5q41 0 81 -3.5t68 -11.5q9 -2 12 -6t3 -12v-346h86v-86h-649q-96 0 -159 17.5t-99.5 51.5t-51.5 83.5t-15 113.5q0 21 1.5 43.5t7.5 50.5q3 20 19 20h42q18 0 15 -20q-2 -23 -2.5 -39t-0.5 -33
q0 -48 9 -85.5t36 -63.5t75.5 -39.5t127.5 -13.5h209zM859 84v297q-20 3 -40.5 4t-46.5 1q-69 0 -105 -33.5t-36 -101.5v-21q0 -71 31.5 -108.5t99.5 -37.5h97zM717 650q0 10 7 16t16 6h44q9 0 15.5 -6t6.5 -16v-54q0 -9 -6.5 -15t-16.5 -6h-43q-10 0 -16.5 6t-6.5 15v54z
" />
    <glyph glyph-name="FehMed" unicode="&#x641;" horiz-adv-x="554" arabic-form="medial" 
d="M242 650q0 10 7 16t16 6h44q9 0 15.5 -6t6.5 -16v-54q0 -9 -6.5 -15t-16.5 -6h-43q-10 0 -16.5 6t-6.5 15v54zM-40 73q0 6 10 9.5t24 3.5h132q-26 21 -40 56t-14 85v24q0 102 61.5 158t170.5 56q41 0 80.5 -3.5t67.5 -11.5q10 -2 13 -6t3 -12v-346h86v-86h-560
q-14 0 -24 3.5t-10 10.5v59zM384 84v297q-20 3 -40.5 4t-46.5 1q-69 0 -105 -34.5t-36 -103.5v-21q0 -69 31.5 -106t98.5 -37h98z" />
    <glyph glyph-name="FehIni" unicode="&#x641;" horiz-adv-x="548" arabic-form="initial" 
d="M156 226q0 -69 31.5 -105.5t98.5 -36.5q23 0 50 0.5t48 2.5v294q-20 3 -41 4t-47 1q-69 0 -104.5 -35t-35.5 -103v-22zM-40 73q0 6 10 9.5t24 3.5h122q-19 21 -31.5 55t-12.5 85v24q0 101 61.5 158t169.5 57q42 0 82 -3.5t67 -11.5q10 -2 13 -6t3 -12v-262v-36.5
t-0.5 -39t-1.5 -37.5t-2 -33q-1 -17 -22 -19q-42 -4 -80.5 -4.5t-78.5 -0.5h-289q-14 0 -24 3.5t-10 10.5v59zM242 650q0 10 7 16t16 6h44q9 0 15.5 -6t6.5 -16v-54q0 -9 -6.5 -15t-16.5 -6h-43q-10 0 -16.5 6t-6.5 15v54z" />
    <glyph glyph-name="VehSep" unicode="&#x6a4;" horiz-adv-x="1023" arabic-form="isolated" 
d="M635 642q0 10 6.5 16.5t16.5 6.5h39q10 0 16.5 -6.5t6.5 -16.5v-50q0 -9 -7 -15t-16 -6h-39q-10 0 -16.5 6t-6.5 15v50zM798 642q0 10 7.5 16.5t16.5 6.5h39q9 0 16 -6.5t7 -16.5v-50q0 -9 -7 -15t-16 -6h-39q-9 0 -16.5 6t-7.5 15v50zM719 766q0 9 7 15t16 6h37
q9 0 16 -6t7 -15v-45q0 -10 -7.5 -15.5t-16.5 -5.5h-37q-9 0 -15.5 5.5t-6.5 15.5v45zM593 86q-20 22 -33 58.5t-13 87.5v22q0 99 62 155t170 56q41 0 81 -3.5t68 -11.5q9 -2 12 -6t3 -12v-262v-36.5t-0.5 -39t-1 -37.5t-1.5 -33q-1 -17 -23 -19q-42 -4 -81.5 -4.5
t-77.5 -0.5h-385q-93 0 -154.5 17.5t-98 51.5t-51 83.5t-14.5 113.5q0 21 1.5 43t7.5 51q2 11 6 15.5t13 4.5h42q18 0 15 -20q-2 -23 -2.5 -39t-0.5 -33q0 -48 9 -85.5t35.5 -63.5t73.5 -39.5t123 -13.5h215zM631 229q0 -70 31.5 -107.5t99.5 -37.5q23 0 49 0.5t48 2.5v294
q-20 3 -40.5 4t-46.5 1q-69 0 -105 -35t-36 -100v-22z" />
    <glyph glyph-name="VehFin" unicode="&#x6a4;" horiz-adv-x="1029" arabic-form="final" 
d="M594 86q-20 22 -33.5 58.5t-13.5 87.5v21q0 99 62 155.5t170 56.5q41 0 81 -3.5t68 -11.5q9 -2 12 -6t3 -12v-346h86v-86h-649q-96 0 -159 17.5t-99.5 51.5t-51.5 83.5t-15 113.5q0 21 1.5 43.5t7.5 50.5q3 20 19 20h42q18 0 15 -20q-2 -23 -2.5 -39t-0.5 -33
q0 -48 9 -85.5t36 -63.5t75.5 -39.5t127.5 -13.5h209zM859 84v297q-20 3 -40.5 4t-46.5 1q-69 0 -105 -33.5t-36 -101.5v-21q0 -71 31.5 -108.5t99.5 -37.5h97zM635 642q0 10 6.5 16.5t16.5 6.5h39q10 0 16.5 -6.5t6.5 -16.5v-50q0 -9 -7 -15t-16 -6h-39q-10 0 -16.5 6
t-6.5 15v50zM798 642q0 10 7.5 16.5t16.5 6.5h39q9 0 16 -6.5t7 -16.5v-50q0 -9 -7 -15t-16 -6h-39q-9 0 -16.5 6t-7.5 15v50zM719 766q0 9 7 15t16 6h37q9 0 16 -6t7 -15v-45q0 -10 -7.5 -15.5t-16.5 -5.5h-37q-9 0 -15.5 5.5t-6.5 15.5v45z" />
    <glyph glyph-name="VehMed" unicode="&#x6a4;" horiz-adv-x="554" arabic-form="medial" 
d="M163 642q0 10 6.5 16.5t16.5 6.5h39q10 0 16.5 -6.5t6.5 -16.5v-50q0 -9 -7 -15t-16 -6h-39q-10 0 -16.5 6t-6.5 15v50zM326 642q0 10 7.5 16.5t16.5 6.5h39q9 0 16 -6.5t7 -16.5v-50q0 -9 -7 -15t-16 -6h-39q-9 0 -16.5 6t-7.5 15v50zM247 766q0 9 7 15t16 6h37
q9 0 16 -6t7 -15v-45q0 -10 -7.5 -15.5t-16.5 -5.5h-37q-9 0 -15.5 5.5t-6.5 15.5v45zM-40 73q0 6 10 9.5t24 3.5h132q-26 21 -40 56t-14 85v24q0 102 61.5 158t170.5 56q41 0 80.5 -3.5t67.5 -11.5q10 -2 13 -6t3 -12v-346h86v-86h-560q-14 0 -24 3.5t-10 10.5v59zM384 84
v297q-20 3 -40.5 4t-46.5 1q-69 0 -105 -34.5t-36 -103.5v-21q0 -69 31.5 -106t98.5 -37h98z" />
    <glyph glyph-name="VehIni" unicode="&#x6a4;" horiz-adv-x="548" arabic-form="initial" 
d="M156 226q0 -69 31.5 -105.5t98.5 -36.5q23 0 50 0.5t48 2.5v294q-20 3 -41 4t-47 1q-69 0 -104.5 -35t-35.5 -103v-22zM-40 73q0 6 10 9.5t24 3.5h122q-19 21 -31.5 55t-12.5 85v24q0 101 61.5 158t169.5 57q42 0 82 -3.5t67 -11.5q10 -2 13 -6t3 -12v-262v-36.5
t-0.5 -39t-1.5 -37.5t-2 -33q-1 -17 -22 -19q-42 -4 -80.5 -4.5t-78.5 -0.5h-289q-14 0 -24 3.5t-10 10.5v59zM159 642q0 10 6.5 16.5t16.5 6.5h39q10 0 16.5 -6.5t6.5 -16.5v-50q0 -9 -7 -15t-16 -6h-39q-10 0 -16.5 6t-6.5 15v50zM322 642q0 10 7.5 16.5t16.5 6.5h39
q9 0 16 -6.5t7 -16.5v-50q0 -9 -7 -15t-16 -6h-39q-9 0 -16.5 6t-7.5 15v50zM243 766q0 9 7 15t16 6h37q9 0 16 -6t7 -15v-45q0 -10 -7.5 -15.5t-16.5 -5.5h-37q-9 0 -15.5 5.5t-6.5 15.5v45z" />
    <glyph glyph-name="QafSep" unicode="&#x642;" horiz-adv-x="744" arabic-form="isolated" 
d="M355 648q0 10 6.5 16t16.5 6h39q10 0 16.5 -6t6.5 -16v-54q0 -9 -7 -15t-16 -6h-39q-10 0 -16.5 6t-6.5 15v54zM518 648q0 10 7.5 16t16.5 6h39q9 0 16 -6t7 -16v-54q0 -9 -7 -15t-16 -6h-39q-9 0 -16.5 6t-7.5 15v54zM60 58q0 9 0.5 23t1.5 29.5t2.5 32t4.5 31.5
q3 19 19 19h42q16 0 16 -21q-2 -23 -3 -47.5t-1 -41.5q0 -52 11 -96t40.5 -76.5t81 -51t133.5 -18.5h40t47.5 1t47 2t37.5 3v172q-7 -6 -20.5 -9.5t-29.5 -6t-32.5 -3t-29.5 -0.5q-93 0 -146 52t-53 156v25q0 106 62 167t176 61q40 0 78 -3.5t64 -11.5q9 -3 12 -6.5t3 -11.5
v-480v-35.5v-44.5t-0.5 -44.5t-1.5 -34.5q0 -18 -22 -21q-52 -8 -111.5 -9.5t-119.5 -1.5q-95 0 -161.5 20.5t-108 59t-60.5 94.5t-19 127zM580 378q-20 2 -39 3t-45 1q-66 0 -104.5 -37t-38.5 -106v-20q0 -71 30 -103t96 -32q44 0 72.5 5t28.5 28v261z" />
    <glyph glyph-name="QafFin" unicode="&#x642;" horiz-adv-x="757" arabic-form="final" 
d="M580 84v294q-20 2 -39 3t-45 1q-66 0 -104.5 -37t-38.5 -106v-20q0 -71 30 -103t96 -32h101zM60 58q0 9 0.5 23t1.5 29.5t2.5 32t4.5 31.5q3 19 19 19h42q16 0 16 -21q-2 -23 -3 -47.5t-1 -41.5q0 -52 11 -96.5t40.5 -76.5t81 -50.5t133.5 -18.5h40t47 1t46 2t37 3
q1 45 1 81v72h-105q-100 0 -152.5 52t-52.5 157v25q0 105 62 166t176 61q40 0 78 -3.5t64 -11.5q8 -3 11.5 -6.5t3.5 -11.5v-342h93v-86h-93q0 -70 -0.5 -127t-2.5 -84q0 -18 -21 -21q-52 -8 -111.5 -9.5t-119.5 -1.5q-95 0 -161.5 20.5t-108 59t-60.5 94.5t-19 127z
M355 648q0 10 6.5 16t16.5 6h39q10 0 16.5 -6t6.5 -16v-54q0 -9 -7 -15t-16 -6h-39q-10 0 -16.5 6t-6.5 15v54zM518 648q0 10 7.5 16t16.5 6h39q9 0 16 -6t7 -16v-54q0 -9 -7 -15t-16 -6h-39q-9 0 -16.5 6t-7.5 15v54z" />
    <glyph glyph-name="QafMed" unicode="&#x642;" horiz-adv-x="554" arabic-form="medial" 
d="M159 650q0 10 6.5 16t16.5 6h39q10 0 16.5 -6t6.5 -16v-54q0 -9 -7 -15t-16 -6h-39q-10 0 -16.5 6t-6.5 15v54zM322 650q0 10 7.5 16t16.5 6h39q9 0 16 -6t7 -16v-54q0 -9 -7 -15t-16 -6h-39q-9 0 -16.5 6t-7.5 15v54zM-40 73q0 6 10 9.5t24 3.5h132q-26 21 -40 56
t-14 85v24q0 102 61.5 158t170.5 56q41 0 80.5 -3.5t67.5 -11.5q10 -2 13 -6t3 -12v-346h86v-86h-560q-14 0 -24 3.5t-10 10.5v59zM384 84v297q-20 3 -40.5 4t-46.5 1q-69 0 -105 -34.5t-36 -103.5v-21q0 -69 31.5 -106t98.5 -37h98z" />
    <glyph glyph-name="QafIni" unicode="&#x642;" horiz-adv-x="548" arabic-form="initial" 
d="M156 226q0 -69 31.5 -105.5t98.5 -36.5q23 0 50 0.5t48 2.5v294q-20 3 -41 4t-47 1q-69 0 -104.5 -35t-35.5 -103v-22zM-40 73q0 6 10 9.5t24 3.5h122q-19 21 -31.5 55t-12.5 85v24q0 101 61.5 158t169.5 57q42 0 82 -3.5t67 -11.5q10 -2 13 -6t3 -12v-262v-36.5
t-0.5 -39t-1.5 -37.5t-2 -33q-1 -17 -22 -19q-42 -4 -80.5 -4.5t-78.5 -0.5h-289q-14 0 -24 3.5t-10 10.5v59zM159 650q0 10 6.5 16t16.5 6h39q10 0 16.5 -6t6.5 -16v-54q0 -9 -7 -15t-16 -6h-39q-10 0 -16.5 6t-6.5 15v54zM322 650q0 10 7.5 16t16.5 6h39q9 0 16 -6t7 -16
v-54q0 -9 -7 -15t-16 -6h-39q-9 0 -16.5 6t-7.5 15v54z" />
    <glyph glyph-name="WawSep" unicode="&#x648;" horiz-adv-x="539" arabic-form="isolated" 
d="M375 378q-20 2 -39 3t-45 1q-66 0 -104.5 -37t-38.5 -106v-20q0 -71 30 -103t102 -32q39 0 67 5t28 28v261zM99 -168q0 14 16 14q17 0 43 -0.5t42 -0.5q40 0 72 4.5t54.5 17t35 35t12.5 58.5v59q-7 -6 -20.5 -9.5t-30 -6t-32.5 -3t-28 -0.5q-91 0 -145 52t-54 157v25
q0 105 62 166t176 61q40 0 77.5 -3.5t63.5 -11.5q10 -3 13 -6.5t3 -11.5v-453q0 -62 -18 -102t-50 -63.5t-76 -33t-97 -9.5q-10 0 -25.5 0.5l-31 1t-28.5 1.5t-18 2q-10 2 -13 5.5t-3 10.5v44z" />
    <glyph glyph-name="WawFin" unicode="&#x648;" horiz-adv-x="545" arabic-form="final" 
d="M99 -168q0 14 16 14q17 0 43 -0.5t42 -0.5q40 0 71.5 4.5t54 17t34.5 35t13 58.5v40h-100q-101 0 -155 52t-54 157v25q0 105 62 166t176 61q40 0 77.5 -3.5t63.5 -11.5q9 -3 12 -6.5t3 -11.5v-342h87v-86h-88v-38q-2 -56 -20 -93.5t-49 -60t-74.5 -32t-95.5 -9.5
q-10 0 -25.5 0.5l-31 1t-28.5 1.5t-18 2q-10 2 -13 5.5t-3 10.5v44zM148 219q0 -71 30 -103t97 -32h99v294q-20 2 -39 3t-44 1q-66 0 -104.5 -37t-38.5 -106v-20z" />
    <glyph glyph-name="WawHamzaAboveSep" unicode="&#x624;" horiz-adv-x="539" arabic-form="isolated" 
d="M375 378q-20 2 -39 3t-45 1q-66 0 -104.5 -37t-38.5 -106v-20q0 -71 30 -103t102 -32q39 0 67 5t28 28v261zM99 -168q0 14 16 14q17 0 43 -0.5t42 -0.5q40 0 72 4.5t54.5 17t35 35t12.5 58.5v59q-7 -6 -20.5 -9.5t-30 -6t-32.5 -3t-28 -0.5q-91 0 -145 52t-54 157v25
q0 105 62 166t176 61q40 0 77.5 -3.5t63.5 -11.5q10 -3 13 -6.5t3 -11.5v-453q0 -62 -18 -102t-50 -63.5t-76 -33t-97 -9.5q-10 0 -25.5 0.5l-31 1t-28.5 1.5t-18 2q-10 2 -13 5.5t-3 10.5v44zM199 567q-18 0 -18 12v17q0 10 18 10h17q-9 11 -13 26.5t-4 30.5
q0 42 24.5 61.5t69.5 19.5q8 0 18 -1t20 -3q11 -4 11 -12v-14q0 -11 -13 -11q-2 0 -14 0.5t-17 0.5q-53 0 -53 -45q0 -21 7 -34.5t15 -17.5h67q17 0 17 -12v-16q0 -8 -4.5 -10t-12.5 -2h-135z" />
    <glyph glyph-name="WawHamzaAboveFin" unicode="&#x624;" horiz-adv-x="545" arabic-form="final" 
d="M99 -168q0 14 16 14q17 0 43 -0.5t42 -0.5q40 0 71.5 4.5t54 17t34.5 35t13 58.5v40h-100q-101 0 -155 52t-54 157v25q0 105 62 166t176 61q40 0 77.5 -3.5t63.5 -11.5q9 -3 12 -6.5t3 -11.5v-342h87v-86h-88v-38q-2 -56 -20 -93.5t-49 -60t-74.5 -32t-95.5 -9.5
q-10 0 -25.5 0.5l-31 1t-28.5 1.5t-18 2q-10 2 -13 5.5t-3 10.5v44zM148 219q0 -71 30 -103t97 -32h99v294q-20 2 -39 3t-44 1q-66 0 -104.5 -37t-38.5 -106v-20zM199 567q-18 0 -18 12v17q0 10 18 10h17q-9 11 -13 26.5t-4 30.5q0 42 24.5 61.5t69.5 19.5q8 0 18 -1t20 -3
q11 -4 11 -12v-14q0 -11 -13 -11q-2 0 -14 0.5t-17 0.5q-53 0 -53 -45q0 -21 7 -34.5t15 -17.5h67q17 0 17 -12v-16q0 -8 -4.5 -10t-12.5 -2h-135z" />
    <glyph glyph-name="KafSep" unicode="&#x643;" horiz-adv-x="805" arabic-form="isolated" 
d="M111 287q16 0 15 -21q-1 -11 -1 -23v-17q0 -42 11.5 -69.5t36 -43t63 -21.5t92.5 -6h265q28 0 36 5t8 31v610q0 8 5.5 13.5t13.5 5.5h49q8 0 13 -5.5t5 -13.5v-577v-27t-1 -31t-2 -31t-2 -27q-2 -10 -6 -17t-16 -12q-8 -3 -23.5 -4.5t-35 -3t-39.5 -2t-37 -0.5h-245
q-73 0 -124.5 11t-84 35.5t-47.5 63t-15 94.5q0 10 1 30t3 33q4 20 19 20h43zM277 351q0 12 19 12h15q-8 10 -11.5 26.5t-3.5 32.5q0 48 27 71.5t77 23.5q21 0 41 -4q13 -3 13 -16v-20q0 -13 -13 -13q-9 0 -18 1t-19 1q-27 0 -40 -13.5t-13 -36.5q0 -19 7 -33t14 -17h72
q19 0 19 -14v-24q0 -14 -19 -14h-148q-19 0 -19 14v23z" />
    <glyph glyph-name="KafFin" unicode="&#x643;" horiz-adv-x="816" arabic-form="final" 
d="M111 287q16 0 15 -21q-1 -12 -1 -23.5v-16.5q0 -42 11.5 -69.5t36 -43t63 -21.5t92.5 -6h238q10 0 22.5 1t23 4.5t18 11t7.5 20.5v609q0 8 5.5 13.5t13.5 5.5h48q8 0 13.5 -5.5t5.5 -13.5v-622q3 -8 12.5 -12.5t21 -7t23.5 -3.5t21 -1h15v-86h-12q-28 0 -63 6t-60 24
q-25 -19 -59.5 -24.5t-63.5 -5.5h-242q-73 0 -124.5 11t-84 35.5t-47.5 63t-15 94.5q0 10 1 30t3 33q4 20 19 20h43zM277 351q0 12 19 12h15q-8 10 -11.5 26.5t-3.5 32.5q0 48 27 71.5t77 23.5q21 0 41 -4q13 -3 13 -16v-20q0 -13 -13 -13q-9 0 -18 1t-19 1q-27 0 -40 -13.5
t-13 -36.5q0 -19 7 -33t14 -17h72q19 0 19 -14v-24q0 -14 -19 -14h-148q-19 0 -19 14v23z" />
    <glyph glyph-name="KafMed" unicode="&#x643;" horiz-adv-x="677" arabic-form="medial" 
d="M-40 70q0 8 10 12t24 4h524q1 23 1.5 49t0.5 50q0 54 -16 89.5t-45 56t-70 28.5t-91 8q-30 0 -62.5 -0.5t-60.5 -0.5t-48 -0.5t-26 -0.5q-17 0 -20 15q-1 2 -1 10v11q0 24 4 46t11.5 44.5t19 47.5t27.5 54l75 138q5 8 10.5 14t16.5 6h47q8 0 11.5 -3.5t3.5 -8.5t-3 -11
l-94 -177q-17 -32 -28.5 -61.5t-12.5 -43.5q48 2 81 3t59 1q70 0 125 -14t93 -44t58 -77.5t20 -114.5v-12v-22.5t-0.5 -28t-1 -28t-0.5 -23.5h75v-86h-683q-14 0 -24 4.5t-10 12.5v53z" />
    <glyph glyph-name="KafIni" unicode="&#x643;" horiz-adv-x="674" arabic-form="initial" 
d="M-40 70q0 8 10 12t24 4h385h29h39.5t39.5 0.5t30 1.5q3 48 3 97q0 54 -16 89.5t-45 56t-70 28.5t-91 8q-30 0 -62.5 -0.5t-60.5 -0.5t-48 -0.5t-26 -0.5q-17 0 -20 15q-1 2 -1 10.5v10.5q0 24 4 46t11.5 45t19 48t27.5 54l75 137q5 8 10.5 14t16.5 6h47q8 0 11.5 -3.5
t3.5 -8.5t-3 -11l-94 -178q-17 -31 -28.5 -61t-12.5 -43q49 2 81 3t58 1q148 0 222.5 -62.5t74.5 -204.5v-17q0 -14 -0.5 -33.5t-1 -39.5t-2 -38.5t-2.5 -29.5q-3 -19 -22 -20q-16 -2 -40 -2.5t-51.5 -1.5t-55.5 -1h-52h-383q-14 0 -24 4.5t-10 12.5v53z" />
    <glyph glyph-name="GafSep" unicode="&#x6af;" horiz-adv-x="918" arabic-form="isolated" 
d="M45 205q0 10 1 25t4 28q3 20 19 20h42q18 0 16 -20q-1 -13 -1 -21v-12q0 -41 11.5 -68t35.5 -43t62 -22t91 -6h295h29.5h40.5t40 0.5t30 1.5q3 48 3 97q0 54 -16 89.5t-45 56t-70 28.5t-91 8q-30 0 -58 -0.5t-50.5 -0.5t-38.5 -0.5t-22 -0.5q-13 0 -16 12q-1 5 -1.5 9.5
t-0.5 6.5q-1 4 -0.5 8t1.5 7q3 13 22 47l148 276q5 8 11 14t16 6h41q8 0 11 -3.5t3 -8.5t-3 -11l-94 -177q-17 -32 -32.5 -60.5t-24.5 -44.5q35 2 58 3t39 1q74 0 129.5 -14.5t93 -46t56 -81.5t18.5 -121v-21q0 -14 -0.5 -33.5t-1 -39.5t-2 -38.5t-2.5 -29.5q-3 -19 -23 -20
q-20 -2 -44.5 -2.5t-50.5 -1.5t-53 -1h-51h-306q-73 0 -124 11t-83.5 35t-47 63t-14.5 96zM309 497q-2 10 -2 14q0 11 7 25l106 196q5 8 10.5 13.5t14.5 5.5h18q8 0 11.5 -3.5t3.5 -8.5t-3 -11l-139 -259q-4 -7 -10 -7q-9 0 -12 9z" />
    <glyph glyph-name="GafFin" unicode="&#x6af;" horiz-adv-x="921" arabic-form="final" 
d="M45 205q0 10 1 25t4 28q3 20 19 20h42q18 0 16 -20q-1 -13 -1 -21v-12q0 -41 11.5 -68t35.5 -43t62 -22t91 -6h435q2 23 2.5 49t0.5 49q0 55 -16 90.5t-45 56t-70 28.5t-91 8q-30 0 -58 -0.5t-50.5 -0.5t-38.5 -0.5t-22 -0.5q-13 0 -16 12q-1 5 -1.5 9.5t-0.5 6.5
q-1 4 -0.5 8t1.5 7q3 13 22 47l148 276q5 8 11 14t16 6h41q8 0 11 -3.5t3 -8.5t-3 -11l-94 -177q-17 -32 -32.5 -60.5t-24.5 -44.5q35 2 58 3t39 1q70 0 125 -14t93 -44t58.5 -77.5t20.5 -114.5v-12v-22.5t-0.5 -28t-1 -28t-0.5 -23.5h75v-86h-607q-73 0 -124 11t-83.5 35
t-47 63t-14.5 96zM309 497q-2 10 -2 14q0 11 7 25l106 196q5 8 10.5 13.5t14.5 5.5h18q8 0 11.5 -3.5t3.5 -8.5t-3 -11l-139 -259q-4 -7 -10 -7q-9 0 -12 9z" />
    <glyph glyph-name="GafMed" unicode="&#x6af;" horiz-adv-x="725" arabic-form="medial" 
d="M-40 70q0 8 10 12t24 4h572q2 23 2.5 49t0.5 50q0 54 -16 89.5t-45 56t-70 28.5t-91 8q-30 0 -60.5 -0.5t-56.5 -0.5t-44.5 -0.5t-24.5 -0.5q-13 0 -16 12q-2 5 -2 9.5t-1 6.5v8t1 7q2 7 7.5 18t15.5 29l148 276q5 8 11 14t16 6h40q8 0 11.5 -3.5t3.5 -8.5t-3 -11
l-94 -177l-57 -105q37 2 69 3t47 1q70 0 125 -14t92.5 -44t57.5 -77.5t20 -114.5v-12v-22.5t-0.5 -28t-1 -28t-1.5 -23.5h75v-86h-731q-14 0 -24 4.5t-10 12.5v53zM96 497q-2 10 -2 14q0 12 8 25l105 196q5 8 10.5 13.5t15.5 5.5h18q8 0 11 -3.5t3 -8.5t-3 -11l-139 -259
q-4 -7 -10 -7q-8 0 -11 9z" />
    <glyph glyph-name="GafIni" unicode="&#x6af;" horiz-adv-x="723" arabic-form="initial" 
d="M-6 0q-14 0 -24 4.5t-10 12.5v53q0 8 10 12t24 4h432h29.5h40.5t40 0.5t30 1.5q3 48 3 97q0 54 -16 89.5t-45 56t-70 28.5t-91 8q-30 0 -60.5 -0.5t-56.5 -0.5t-44.5 -0.5t-24.5 -0.5q-13 0 -16 12q-1 5 -1.5 9.5t-0.5 6.5v8t1 7q2 7 7.5 18.5t14.5 28.5l148 276
q5 8 11 14t16 6h40q8 0 11.5 -3.5t3.5 -8.5t-3 -11l-94 -177l-56 -105q38 2 69 3t46 1q148 0 221.5 -61.5t73.5 -201.5v-21q0 -14 -0.5 -34t-1.5 -40t-2.5 -38t-2.5 -29q-3 -19 -22 -20q-20 -2 -44.5 -2.5t-50.5 -1.5t-52.5 -1h-50.5h-432zM97 497q-2 10 -2 14q0 12 8 25
l105 196q5 8 10.5 13.5t15.5 5.5h17q8 0 11.5 -3.5t3.5 -8.5t-3 -11l-139 -259q-4 -7 -10 -7q-10 0 -11 9z" />
    <glyph glyph-name="KafFarsiSep" unicode="&#x6a9;" horiz-adv-x="919" arabic-form="isolated" 
d="M45 205q0 10 1 25t4 28q3 20 19 20h42q18 0 16 -20q-1 -13 -1 -21v-12q0 -41 11.5 -68t35.5 -43t62 -22t91 -6h297h29h40t40.5 0.5t30.5 1.5q1 24 1.5 48.5t0.5 48.5q0 54 -16 89.5t-45 56t-70 28.5t-91 8q-30 0 -60 -0.5t-55 -0.5t-42.5 -0.5t-23.5 -0.5q-17 0 -20 15
q-1 3 -1 11v10q0 24 4 46t11.5 45t19 48t27.5 54l74 137q5 8 11 14t17 6h47q8 0 11.5 -3.5t3.5 -8.5t-3 -11l-94 -178q-17 -31 -28.5 -61t-12.5 -43q42 2 74 3t49 1q74 0 129.5 -14.5t93 -46t56 -81.5t18.5 -121v-21q0 -14 -0.5 -34l-1 -40t-2 -38t-2.5 -29q-3 -19 -22 -20
q-20 -2 -44.5 -2.5t-51 -1.5t-53 -1h-50.5h-308q-73 0 -124 11t-83.5 35t-47 63t-14.5 96z" />
    <glyph glyph-name="KafFarsiFin" unicode="&#x6a9;" horiz-adv-x="921" arabic-form="final" 
d="M45 205q0 10 1 25t4 28q3 20 19 20h42q18 0 16 -20q-1 -13 -1 -21v-12q0 -41 11.5 -68t35.5 -43t62 -22t91 -6h437q1 23 1.5 49t0.5 49q0 55 -16 90.5t-45 56t-70 28.5t-91 8q-30 0 -60 -0.5t-55 -0.5t-42.5 -0.5t-23.5 -0.5q-17 0 -20 15q-1 3 -1 10.5v10.5q0 24 4 46
t11.5 44.5t19 47.5t27.5 54l74 138q5 8 11 14t17 6h47q8 0 11.5 -3.5t3.5 -8.5t-3 -11l-94 -178q-17 -32 -27.5 -61t-11.5 -43q40 2 72 3t49 1q70 0 125 -14t93 -44t58.5 -77.5t20.5 -114.5v-12v-22.5t-0.5 -28t-1 -28t-1.5 -23.5h75v-86h-607q-73 0 -124 11t-83.5 35
t-47 63t-14.5 96z" />
    <glyph glyph-name="KafFarsiMed" unicode="&#x6a9;" horiz-adv-x="677" arabic-form="medial" 
d="M-40 70q0 8 10 12t24 4h524q1 23 1.5 49t0.5 50q0 54 -16 89.5t-45 56t-70 28.5t-91 8q-30 0 -62.5 -0.5t-60.5 -0.5t-48 -0.5t-26 -0.5q-17 0 -20 15q-1 2 -1 10v11q0 24 4 46t11.5 44.5t19 47.5t27.5 54l75 138q5 8 10.5 14t16.5 6h47q8 0 11.5 -3.5t3.5 -8.5t-3 -11
l-94 -177q-17 -32 -28.5 -61.5t-12.5 -43.5q48 2 81 3t59 1q70 0 125 -14t93 -44t58 -77.5t20 -114.5v-12v-22.5t-0.5 -28t-1 -28t-0.5 -23.5h75v-86h-683q-14 0 -24 4.5t-10 12.5v53z" />
    <glyph glyph-name="KafFarsiIni" unicode="&#x6a9;" horiz-adv-x="674" arabic-form="initial" 
d="M-40 70q0 8 10 12t24 4h385h29h39.5t39.5 0.5t30 1.5q3 48 3 97q0 54 -16 89.5t-45 56t-70 28.5t-91 8q-30 0 -62.5 -0.5t-60.5 -0.5t-48 -0.5t-26 -0.5q-17 0 -20 15q-1 2 -1 10.5v10.5q0 24 4 46t11.5 45t19 48t27.5 54l75 137q5 8 10.5 14t16.5 6h47q8 0 11.5 -3.5
t3.5 -8.5t-3 -11l-94 -178q-17 -31 -28.5 -61t-12.5 -43q49 2 81 3t58 1q148 0 222.5 -62.5t74.5 -204.5v-17q0 -14 -0.5 -33.5t-1 -39.5t-2 -38.5t-2.5 -29.5q-3 -19 -22 -20q-16 -2 -40 -2.5t-51.5 -1.5t-55.5 -1h-52h-383q-14 0 -24 4.5t-10 12.5v53z" />
    <glyph glyph-name="LamSep" unicode="&#x644;" horiz-adv-x="621" arabic-form="isolated" 
d="M126 276q18 0 15 -21q-2 -23 -4 -47.5t-2 -41.5q0 -52 7 -98t30.5 -80t69 -53.5t122.5 -19.5q20 0 43.5 1t44.5 6q1 28 1.5 49t0.5 40v37v39v645q0 8 5 13.5t13 5.5h50q8 0 13 -5.5t5 -13.5v-717q0 -12 -0.5 -32t-1 -42.5t-1 -43t-1.5 -32.5q-1 -10 -6 -14t-16 -7
q-35 -8 -72 -11.5t-81 -3.5q-88 0 -147 20.5t-95 59.5t-51 95.5t-15 127.5q0 10 1 25.5t2.5 33t3.5 35t5 31.5q4 19 18 19h43z" />
    <glyph glyph-name="LamFin" unicode="&#x644;" horiz-adv-x="632" arabic-form="final" 
d="M126 276q18 0 15 -21q-2 -23 -4 -47.5t-2 -41.5q0 -52 7 -98t30.5 -80t68.5 -53.5t122 -19.5q21 0 44.5 1t44.5 6q1 28 1.5 49t0.5 40v37v39v645q0 8 5 13.5t13 5.5h50q8 0 13 -5.5t5 -13.5v-646h92v-86h-92q0 -15 -0.5 -33.5l-1 -37t-1 -35.5t-1.5 -29q-1 -10 -6 -14
t-15 -7q-35 -8 -72.5 -11.5t-81.5 -3.5q-88 0 -147 20.5t-94.5 59.5t-50.5 95t-15 127q0 10 0.5 25.5t2 33t3.5 35t5 32.5q3 19 18 19h43z" />
    <glyph glyph-name="LamMed" unicode="&#x644;" horiz-adv-x="296" arabic-form="medial" 
d="M-40 73q0 6 10 9.5t24 3.5h53q10 0 22 1t23 4.5t18.5 11t7.5 20.5v609q0 8 5.5 13.5t13.5 5.5h49q8 0 13 -5.5t5 -13.5v-622q3 -8 12.5 -12.5t21 -7t23.5 -3.5t21 -1h14v-86h-12q-15 0 -32 1.5t-33.5 5t-32 10t-26.5 16.5q-25 -20 -59.5 -26.5t-62.5 -6.5h-44
q-14 0 -24 3.5t-10 10.5v59z" />
    <glyph glyph-name="LamIni" unicode="&#x644;" horiz-adv-x="284" arabic-form="initial" 
d="M-40 73q0 6 10 9.5t24 3.5h80q29 0 36.5 5t7.5 31v610q0 8 5.5 13.5t13.5 5.5h49q8 0 13 -5.5t5 -13.5v-577v-27t-0.5 -31t-1.5 -31t-3 -27q-2 -10 -6 -17t-16 -12q-8 -3 -23 -4.5t-33 -3t-37.5 -2t-36.5 -0.5h-53q-14 0 -24 3.5t-10 10.5v59z" />
    <glyph glyph-name="MeemSep" unicode="&#x645;" horiz-adv-x="615" arabic-form="isolated" 
d="M50 -7q0 64 27 93t77 33q-7 16 -9.5 39.5t-2.5 46.5v52q0 103 53.5 158.5t153.5 55.5q99 0 150.5 -54.5t51.5 -158.5v-55q0 -104 -49.5 -157t-155.5 -53q-52 0 -90.5 12t-63.5 38q-30 0 -44.5 -10t-14.5 -45v-222q0 -8 -5 -13.5t-13 -5.5h-47q-8 0 -13 5.5t-5 13.5v227z
M226 209q0 -73 26.5 -105t93.5 -32q66 0 93.5 31.5t27.5 105.5v42q0 69 -26.5 105t-92.5 36t-94 -36t-28 -105v-42z" />
    <glyph glyph-name="MeemFin" unicode="&#x645;" horiz-adv-x="635" arabic-form="final" 
d="M50 -18q0 63 27 92.5t77 32.5q-7 17 -9.5 40.5t-2.5 46.5v52q0 103 53.5 158t153.5 55q99 0 150.5 -54t51.5 -158v-63q0 -32 -5 -60q3 -11 11.5 -18t20 -11.5t23 -6.5t20.5 -2h14v-86h-11q-29 0 -63 8t-56 31q-22 -28 -60.5 -42.5t-98.5 -14.5q-52 0 -90.5 12t-63.5 38
q-30 0 -44.5 -10t-14.5 -45v-222q0 -8 -5 -14t-13 -6h-47q-8 0 -13 6t-5 14v227zM226 197q0 -72 26.5 -104t93.5 -32q33 0 56 5.5t37.5 20t21 38.5t6.5 61v53q0 69 -26.5 105t-92.5 36t-94 -36t-28 -105v-42z" />
    <glyph glyph-name="MeemMed" unicode="&#x645;" horiz-adv-x="593" arabic-form="medial" 
d="M-40 73q0 6 10 9.5t24 3.5h32q7 0 18.5 0.5t22.5 3.5t19.5 8.5t10.5 15.5q3 12 3 29v96q0 103 53.5 158t153.5 55t151 -54t51 -159v-56q0 -12 -0.5 -26t-2.5 -25q1 -14 10 -23t20.5 -14t23.5 -7t20 -2h13v-86h-13q-33 0 -64.5 9.5t-50.5 29.5q-47 -68 -160 -68
q-56 0 -99.5 16.5t-66.5 50.5q-20 -23 -52 -30.5t-69 -7.5h-24q-14 0 -24 3.5t-10 10.5v59zM184 232v-46q0 -33 4 -56q9 -42 39 -61t78 -19q66 0 93 33.5t27 102.5v46q0 68 -26.5 104.5t-91.5 36.5q-66 0 -94.5 -36t-28.5 -105z" />
    <glyph glyph-name="MeemIni" unicode="&#x645;" horiz-adv-x="574" arabic-form="initial" 
d="M-40 73q0 6 10 9.5t24 3.5h32q7 0 18 1t22 5t19.5 10.5t11.5 18.5t3 29v96q0 103 53.5 158t153.5 55t151 -54t51 -158v-51q0 -104 -48 -157.5t-156 -53.5q-56 0 -98.5 15.5t-67.5 47.5q-17 -27 -52 -37.5t-77 -10.5h-16q-14 0 -24 3.5t-10 10.5v59zM184 194q0 -32 4 -55
q10 -44 40 -59.5t77 -15.5q66 0 93 31.5t27 105.5v37q0 68 -26.5 105t-91.5 37q-66 0 -94.5 -36.5t-28.5 -105.5v-44z" />
    <glyph glyph-name="HehSep" unicode="&#x647;" horiz-adv-x="540" arabic-form="isolated" 
d="M64 234q0 105 59 166t178 61q40 0 78 -3.5t64 -11.5q10 -3 12.5 -6.5t2.5 -11.5v-265v-30.5t-0.5 -36t-1 -36t-1.5 -31.5q0 -11 -6 -14.5t-16 -5.5q-35 -6 -66.5 -7.5t-60.5 -1.5h-14q-112 0 -170 52t-58 157v25zM148 219q0 -71 35 -103t114 -32q23 0 39 0.5t38 3.5v290
q-19 2 -38 3t-45 1q-72 0 -107.5 -37t-35.5 -106v-20z" />
    <glyph glyph-name="HehFin" unicode="&#x647;" horiz-adv-x="551" arabic-form="final" 
d="M63 242q0 59 19 101t53.5 68.5t82 39t104.5 12.5q13 0 30 -1t33.5 -3t31.5 -4.5t26 -5.5q10 -2 12.5 -6.5t2.5 -12.5v-281q0 -40 19 -51.5t51 -11.5h23v-86h-34q-45 0 -75.5 13t-46.5 45q-17 -22 -52.5 -31.5t-77.5 -9.5h-9q-93 0 -143 51t-50 148v26zM147 227
q0 -60 27 -93.5t92 -33.5h19q15 0 31 2t29 8t21 16.5t8 26.5v227q-20 2 -35 3t-28 1q-36 0 -66 -6t-51.5 -21.5t-34 -42t-12.5 -66.5v-21z" />
    <glyph glyph-name="HehMed" unicode="&#x647;" horiz-adv-x="581" arabic-form="medial" 
d="M-6 0q-14 0 -24 3.5t-10 10.5v59q0 6 10 9.5t24 3.5h114v334q0 20 23 26q32 9 68 12t75 3q106 0 167.5 -47t61.5 -152v-15q0 -88 -35.5 -150t-109.5 -83q-15 -5 -36 -7.5t-43.5 -4t-45 -2t-41.5 -0.5v-25q0 -75 24 -111.5t91 -36.5q65 0 88 34t25 108q0 4 0.5 12t1 16.5
t1.5 16.5t2 11q10 37 39 50q14 7 33 9t42 2h42v-86h-21q-16 0 -34.5 -0.5t-24.5 -1.5l-1 -37q-3 -104 -47 -158.5t-145 -54.5q-58 0 -96.5 15t-61.5 43.5t-32.5 69t-9.5 91.5v33h-114zM272 86q79 0 113 39.5t34 113.5v18q0 36 -10.5 60t-29 38.5t-45 20.5t-59.5 6
q-27 0 -45 -1t-38 -4v-291h80z" />
    <glyph glyph-name="HehIni" unicode="&#x647;" horiz-adv-x="702" arabic-form="initial" 
d="M-40 70q0 8 10 12t24 4h119q-17 18 -24 45t-7 61v32q0 80 45 125t130 45t127 -43.5t42 -126.5v-32q0 -33 -8.5 -61t-26.5 -46h135q8 0 13.5 2.5t8.5 11.5t4.5 25.5t1.5 43.5v50q0 58 -16.5 96.5t-46.5 62t-71.5 33.5t-90.5 10h-39.5t-40.5 -1q-20 -2 -20 13v42
q0 16 19 20q24 4 46.5 4.5t33.5 0.5q61 0 117 -12t99 -43t68.5 -83t25.5 -131v-50q0 -32 -2 -72t-10 -73q-2 -10 -10 -19.5t-25 -11.5q-14 -2 -40 -2.5t-55 -1t-58 -0.5h-50h-394q-14 0 -24 4.5t-10 12.5v53zM160 187q0 -47 19.5 -77t72.5 -30q54 0 75 29.5t21 77.5v34
q0 49 -19 77.5t-73 28.5t-75 -28.5t-21 -77.5v-34z" />
    <glyph glyph-name="HehDoaSep" unicode="&#x6be;" horiz-adv-x="809" arabic-form="isolated" 
d="M52 70q0 16 19 16h150q-17 17 -24.5 46t-7.5 60v32q0 80 45 125t130 45t127 -43.5t42 -126.5v-32q0 -30 -8.5 -60t-26.5 -47h136q7 0 12.5 2.5t8.5 11.5t4.5 25.5t1.5 43.5v50q0 58 -16.5 96.5t-46.5 62t-71.5 33.5t-90.5 10h-39.5t-40.5 -1q-20 -2 -20 13v42q0 16 19 20
q25 4 47 4.5t33 0.5q65 0 121.5 -13.5t98.5 -45t66 -83t24 -127.5v-50q0 -32 -2 -72t-10 -73q-2 -10 -10 -19.5t-26 -11.5q-14 -2 -39.5 -2.5t-54.5 -1t-58 -0.5h-50h-424q-19 0 -19 17v53zM267 187q0 -48 19 -77.5t73 -29.5t75 29.5t21 77.5v34q0 49 -19 78t-72 29
q-55 0 -76 -29t-21 -78v-34z" />
    <glyph glyph-name="HehDoaFin" unicode="&#x6be;" horiz-adv-x="662" arabic-form="final" 
d="M68 0q-8 0 -14 4.5t-6 12.5v53q0 8 6 12t14 4h121v334q0 20 23 26q32 9 68 12t75 3q53 0 95.5 -11.5t72 -35.5t45.5 -62t16 -90v-15q0 -87 -36 -150t-109 -83q-15 -5 -35.5 -7.5t-42.5 -4t-44 -2t-41 -0.5h-3v-25q0 -75 24 -111.5t91 -36.5q64 0 87.5 34t25.5 108
q0 4 0.5 12t1 16.5t1.5 16.5t2 11q10 37 39 50q14 7 33 9t42 2h42v-86h-21q-17 0 -35 -0.5t-24 -1.5l-1 -37q-3 -104 -46.5 -158.5t-145.5 -54.5q-58 0 -96.5 15t-61.5 43.5t-32.5 69t-9.5 91.5v33h-121zM353 86q79 0 113 39.5t34 113.5v18q0 36 -10.5 60t-29 38.5t-45 20.5
t-59.5 6q-25 0 -44 -1t-39 -4v-291h80z" />
    <glyph glyph-name="HehDoaMed" unicode="&#x6be;" horiz-adv-x="581" arabic-form="medial" 
d="M-6 0q-14 0 -24 3.5t-10 10.5v59q0 6 10 9.5t24 3.5h114v334q0 20 23 26q32 9 68 12t75 3q106 0 167.5 -47t61.5 -152v-15q0 -88 -35.5 -150t-109.5 -83q-15 -5 -36 -7.5t-43.5 -4t-45 -2t-41.5 -0.5v-25q0 -75 24 -111.5t91 -36.5q65 0 88 34t25 108q0 4 0.5 12t1 16.5
t1.5 16.5t2 11q10 37 39 50q14 7 33 9t42 2h42v-86h-21q-16 0 -34.5 -0.5t-24.5 -1.5l-1 -37q-3 -104 -47 -158.5t-145 -54.5q-58 0 -96.5 15t-61.5 43.5t-32.5 69t-9.5 91.5v33h-114zM272 86q79 0 113 39.5t34 113.5v18q0 36 -10.5 60t-29 38.5t-45 20.5t-59.5 6
q-27 0 -45 -1t-38 -4v-291h80z" />
    <glyph glyph-name="HehDoaIni" unicode="&#x6be;" horiz-adv-x="702" arabic-form="initial" 
d="M-40 70q0 8 10 12t24 4h119q-17 18 -24 45t-7 61v32q0 80 45 125t130 45t127 -43.5t42 -126.5v-32q0 -33 -8.5 -61t-26.5 -46h135q8 0 13.5 2.5t8.5 11.5t4.5 25.5t1.5 43.5v50q0 58 -16.5 96.5t-46.5 62t-71.5 33.5t-90.5 10h-39.5t-40.5 -1q-20 -2 -20 13v42
q0 16 19 20q24 4 46.5 4.5t33.5 0.5q61 0 117 -12t99 -43t68.5 -83t25.5 -131v-50q0 -32 -2 -72t-10 -73q-2 -10 -10 -19.5t-25 -11.5q-14 -2 -40 -2.5t-55 -1t-58 -0.5h-50h-394q-14 0 -24 4.5t-10 12.5v53zM160 187q0 -47 19.5 -77t72.5 -30q54 0 75 29.5t21 77.5v34
q0 49 -19 77.5t-73 28.5t-75 -28.5t-21 -77.5v-34z" />
    <glyph glyph-name="TehMarbutaSep" unicode="&#x629;" horiz-adv-x="540" arabic-form="isolated" 
d="M150 648q0 10 6.5 16t16.5 6h39q10 0 16.5 -6t6.5 -16v-54q0 -9 -7 -15t-16 -6h-39q-10 0 -16.5 6t-6.5 15v54zM313 648q0 10 7.5 16t16.5 6h39q9 0 16 -6t7 -16v-54q0 -9 -7 -15t-16 -6h-39q-9 0 -16.5 6t-7.5 15v54zM64 234q0 105 59 166t178 61q40 0 78 -3.5t64 -11.5
q10 -3 12.5 -6.5t2.5 -11.5v-265v-30.5t-0.5 -36t-1 -36t-1.5 -31.5q0 -11 -6 -14.5t-16 -5.5q-35 -6 -66.5 -7.5t-60.5 -1.5h-14q-112 0 -170 52t-58 157v25zM148 219q0 -71 35 -103t114 -32q23 0 39 0.5t38 3.5v290q-19 2 -38 3t-45 1q-72 0 -107.5 -37t-35.5 -106v-20z
" />
    <glyph glyph-name="TehMarbutaFin" unicode="&#x629;" horiz-adv-x="551" arabic-form="final" 
d="M63 242q0 59 19 101t53.5 68.5t82 39t104.5 12.5q13 0 30 -1t33.5 -3t31.5 -4.5t26 -5.5q10 -2 12.5 -6.5t2.5 -12.5v-281q0 -40 19 -51.5t51 -11.5h23v-86h-34q-45 0 -75.5 13t-46.5 45q-17 -22 -52.5 -31.5t-77.5 -9.5h-9q-93 0 -143 51t-50 148v26zM147 227
q0 -60 27 -93.5t92 -33.5h19q15 0 31 2t29 8t21 16.5t8 26.5v227q-20 2 -35 3t-28 1q-36 0 -66 -6t-51.5 -21.5t-34 -42t-12.5 -66.5v-21zM149 648q0 10 6.5 16t16.5 6h39q10 0 16.5 -6t6.5 -16v-54q0 -9 -7 -15t-16 -6h-39q-10 0 -16.5 6t-6.5 15v54zM312 648q0 10 7.5 16
t16.5 6h39q9 0 16 -6t7 -16v-54q0 -9 -7 -15t-16 -6h-39q-9 0 -16.5 6t-7.5 15v54z" />
    <glyph glyph-name="HehYehAboveSep" unicode="&#x6c0;" horiz-adv-x="540" arabic-form="isolated" 
d="M64 234q0 105 59 166t178 61q40 0 78 -3.5t64 -11.5q10 -3 12.5 -6.5t2.5 -11.5v-265v-30.5t-0.5 -36t-1 -36t-1.5 -31.5q0 -11 -6 -14.5t-16 -5.5q-35 -6 -66.5 -7.5t-60.5 -1.5h-14q-112 0 -170 52t-58 157v25zM148 219q0 -71 35 -103t114 -32q23 0 39 0.5t38 3.5v290
q-19 2 -38 3t-45 1q-72 0 -107.5 -37t-35.5 -106v-20zM202 567q-18 0 -18 12v17q0 10 18 10h17q-9 11 -13 26.5t-4 30.5q0 42 24.5 61.5t69.5 19.5q8 0 18 -1t20 -3q11 -4 11 -12v-14q0 -11 -13 -11q-2 0 -14 0.5t-17 0.5q-53 0 -53 -45q0 -21 7 -34.5t15 -17.5h67
q17 0 17 -12v-16q0 -8 -4.5 -10t-12.5 -2h-135z" />
    <glyph glyph-name="HehYehAboveFin" unicode="&#x6c0;" horiz-adv-x="551" arabic-form="final" 
d="M63 242q0 59 19 101t53.5 68.5t82 39t104.5 12.5q13 0 30 -1t33.5 -3t31.5 -4.5t26 -5.5q10 -2 12.5 -6.5t2.5 -12.5v-281q0 -40 19 -51.5t51 -11.5h23v-86h-34q-45 0 -75.5 13t-46.5 45q-17 -22 -52.5 -31.5t-77.5 -9.5h-9q-93 0 -143 51t-50 148v26zM147 227
q0 -60 27 -93.5t92 -33.5h19q15 0 31 2t29 8t21 16.5t8 26.5v227q-20 2 -35 3t-28 1q-36 0 -66 -6t-51.5 -21.5t-34 -42t-12.5 -66.5v-21zM201 567q-18 0 -18 12v17q0 10 18 10h17q-9 11 -13 26.5t-4 30.5q0 42 24.5 61.5t69.5 19.5q8 0 18 -1t20 -3q11 -4 11 -12v-14
q0 -11 -13 -11q-2 0 -14 0.5t-17 0.5q-53 0 -53 -45q0 -21 7 -34.5t15 -17.5h67q17 0 17 -12v-16q0 -8 -4.5 -10t-12.5 -2h-135z" />
    <glyph glyph-name="HehGoalSep" unicode="&#x6c1;" horiz-adv-x="540" arabic-form="isolated" 
d="M64 234q0 105 59 166t178 61q40 0 78 -3.5t64 -11.5q10 -3 12.5 -6.5t2.5 -11.5v-265v-30.5t-0.5 -36t-1 -36t-1.5 -31.5q0 -11 -6 -14.5t-16 -5.5q-35 -6 -66.5 -7.5t-60.5 -1.5h-14q-112 0 -170 52t-58 157v25zM148 219q0 -71 35 -103t114 -32q23 0 39 0.5t38 3.5v290
q-19 2 -38 3t-45 1q-72 0 -107.5 -37t-35.5 -106v-20z" />
    <glyph glyph-name="HehGoalFin" unicode="&#x6c1;" horiz-adv-x="567" arabic-form="final" 
d="M336 328q38 0 70.5 -3t55.5 -8q8 -2 14.5 -6t6.5 -15v-173q0 -24 10 -30.5t42 -6.5h32v-86h-52q-64 0 -90 22.5t-26 81.5v136q-8 2 -24 3.5t-40 1.5q-56 0 -93 -13.5t-58.5 -43t-30 -77t-8.5 -115.5v-61q0 -8 -4.5 -13t-12.5 -5h-48q-18 0 -18 19q0 3 -0.5 14t-0.5 24v24
v14q0 84 16 143.5t49.5 98t85.5 56.5t124 18z" />
    <glyph glyph-name="HehGoalMed" unicode="&#x6c1;" horiz-adv-x="576" arabic-form="medial" 
d="M-40 70q0 8 10 12t24 4h93q0 3 0.5 17.5t1 31.5t0.5 31.5v17.5q1 8 6 13.5t13 5.5h47q8 0 12.5 -5.5t4.5 -13.5v-136q0 -65 12.5 -105.5t34 -63.5t51.5 -31.5t65 -8.5q18 0 40.5 1t37.5 3v84q1 75 35 117t115 42h13v-86h-9q-44 0 -58.5 -21.5t-14.5 -67.5v-125
q0 -11 -6 -15.5t-14 -6.5q-20 -3 -56 -5.5t-84 -2.5q-55 0 -99.5 13t-76 42t-49.5 75.5t-19 113.5h-97q-14 0 -23.5 4.5t-9.5 12.5v53z" />
    <glyph glyph-name="HehGoalIni" unicode="&#x6c1;" horiz-adv-x="273" arabic-form="initial" 
d="M105 -257q-17 0 -20 22q-1 7 -2 20.5t-1 24.5q0 33 2.5 55.5t6.5 44.5q3 24 19 24h35q7 0 12 -3.5t3 -16.5q-4 -30 -5 -52.5t-1 -50.5q0 -12 0.5 -25t1.5 -24q2 -12 -3.5 -15.5t-12.5 -3.5h-35zM-40 73q0 6 10 9.5t24 3.5h70q29 0 37 5t8 31v66v62t-0.5 64t-1.5 72
q0 8 4.5 13.5t12.5 5.5h48q9 0 14 -5.5t5 -13.5q1 -34 1.5 -57t0.5 -43.5v-42v-51.5q0 -48 -0.5 -89t-3.5 -64q-2 -10 -6.5 -17t-16.5 -12q-8 -3 -22 -4.5t-32 -3t-37 -2t-36 -0.5h-45q-14 0 -24 3.5t-10 10.5v59z" />
    <glyph glyph-name="HehGoalHamzaAboveFin" unicode="&#x6c2;" horiz-adv-x="567" 
d="M196 441q-18 0 -18 12v17q0 10 18 10h17q-9 11 -13 26.5t-4 30.5q0 42 24.5 61.5t69.5 19.5q8 0 18 -1t20 -3q11 -4 11 -12v-14q0 -11 -13 -11q-2 0 -14 0.5t-17 0.5q-53 0 -53 -45q0 -21 7 -34.5t15 -17.5h67q17 0 17 -12v-16q0 -8 -4.5 -10t-12.5 -2h-135zM336 328
q38 0 70.5 -3t55.5 -8q8 -2 14.5 -6t6.5 -15v-173q0 -24 10 -30.5t42 -6.5h32v-86h-52q-64 0 -90 22.5t-26 81.5v136q-8 2 -24 3.5t-40 1.5q-56 0 -93 -13.5t-58.5 -43t-30 -77t-8.5 -115.5v-61q0 -8 -4.5 -13t-12.5 -5h-48q-18 0 -18 19q0 3 -0.5 14t-0.5 24v24v14
q0 84 16 143.5t49.5 98t85.5 56.5t124 18z" />
    <glyph glyph-name="TehMarbutaGoalFin" unicode="&#x6c3;" horiz-adv-x="567" 
d="M146 525q0 10 6.5 16t16.5 6h39q10 0 16.5 -6t6.5 -16v-54q0 -9 -7 -15t-16 -6h-39q-10 0 -16.5 6t-6.5 15v54zM309 525q0 10 7.5 16t16.5 6h39q9 0 16 -6t7 -16v-54q0 -9 -7 -15t-16 -6h-39q-9 0 -16.5 6t-7.5 15v54zM336 328q38 0 70.5 -3t55.5 -8q8 -2 14.5 -6
t6.5 -15v-173q0 -24 10 -30.5t42 -6.5h32v-86h-52q-64 0 -90 22.5t-26 81.5v136q-8 2 -24 3.5t-40 1.5q-56 0 -93 -13.5t-58.5 -43t-30 -77t-8.5 -115.5v-61q0 -8 -4.5 -13t-12.5 -5h-48q-18 0 -18 19q0 3 -0.5 14t-0.5 24v24v14q0 84 16 143.5t49.5 98t85.5 56.5t124 18z
" />
    <glyph glyph-name="AlefMaqsuraSep" unicode="&#x649;" horiz-adv-x="928" arabic-form="isolated" 
d="M128 276q17 0 16 -20q-2 -23 -5 -49.5t-3 -43.5q0 -51 6 -96t28.5 -79.5t67.5 -54.5t122 -20q30 0 59.5 1.5t52.5 6.5q0 27 0.5 48t1 39.5t0.5 36v38.5v110q0 107 61 154.5t170 47.5q31 0 65 -3t62 -10q8 -2 12 -5.5t4 -12.5v-344q0 -8 -5.5 -14t-13.5 -6h-47q-8 0 -13 6
t-5 14v291q-21 3 -36 4t-33 1q-32 0 -57.5 -6t-43 -20.5t-27 -39.5t-9.5 -63v-181v-33v-38.5t-0.5 -38.5t-1.5 -32q0 -17 -22 -22q-38 -7 -83.5 -10t-93.5 -3q-90 0 -148 21t-92.5 60.5t-48 96t-13.5 126.5q0 9 1 24t2.5 32.5t3.5 35t5 32.5q3 19 19 19h42z" />
    <glyph glyph-name="AlefMaqsuraFin" unicode="&#x649;" horiz-adv-x="939" arabic-form="final" 
d="M129 276q18 0 15 -20q-2 -23 -4.5 -49.5t-2.5 -43.5q0 -51 6 -96t28.5 -79.5t66.5 -54.5t121 -20q30 0 60 1.5t53 6.5q0 27 0.5 48t1 39.5t0.5 36v38.5v109q0 106 61 154.5t170 48.5q31 0 64 -3t61 -10q8 -2 12 -5.5t4 -12.5v-241q0 -24 10.5 -30.5t41.5 -6.5h41v-86h-62
q-62 0 -88.5 22.5t-26.5 81.5v207q-20 3 -34.5 4t-32.5 1q-32 0 -57.5 -6t-43 -20.5t-27 -39.5t-9.5 -63v-181v-33v-38.5t-0.5 -38.5t-1.5 -32q-1 -17 -23 -22q-38 -7 -83.5 -10t-93.5 -3q-89 0 -147.5 21t-92.5 60.5t-47.5 96t-13.5 126.5q0 9 1 24t2.5 32.5t3.5 35t5 32.5
q3 19 19 19h43z" />
    <glyph glyph-name="YehSep" unicode="&#x64a;" horiz-adv-x="928" arabic-form="isolated" 
d="M55 133q0 9 1 24t2.5 32.5t3.5 35t5 32.5q3 19 19 19h43q18 0 15 -20q-2 -23 -4.5 -49.5t-2.5 -43.5q0 -50 6 -94.5t29 -78t67 -53.5t121 -20q30 0 59.5 1.5t52.5 6.5q0 28 0.5 48.5t1 38t0.5 34.5v38v109q0 107 61 154.5t170 47.5q31 0 65 -2.5t62 -10.5q8 -2 12 -5.5
t4 -12.5v-344q0 -8 -5 -14t-14 -6h-47q-8 0 -13 6t-5 14v291q-22 3 -36.5 4t-32.5 1q-32 0 -57.5 -6t-43 -20.5t-27 -39.5t-9.5 -63v-181v-32v-37.5t-0.5 -37.5t-1.5 -32q0 -10 -5.5 -14.5t-16.5 -6.5q-37 -7 -83 -10t-94 -3q-89 0 -147 21.5t-92.5 60.5t-48.5 94.5
t-14 123.5zM186 -267q0 10 7 15.5t16 5.5h37q10 0 16.5 -5.5t6.5 -15.5v-50q0 -8 -7 -14t-16 -6h-37q-9 0 -16 6t-7 14v50zM348 -267q0 10 7 15.5t16 5.5h38q8 0 15 -5.5t7 -15.5v-50q0 -8 -7 -14t-15 -6h-38q-9 0 -16 6t-7 14v50z" />
    <glyph glyph-name="YehFin" unicode="&#x64a;" horiz-adv-x="945" arabic-form="final" 
d="M55 133q0 9 1 24t2.5 32.5t3.5 35t5 32.5q3 19 20 19h42q17 0 16 -20q-3 -23 -5.5 -49.5t-2.5 -43.5q0 -50 6.5 -94.5t29 -78t67 -53.5t121.5 -20q29 0 59.5 1.5t53.5 6.5q0 28 0.5 48.5t0.5 38v34.5v38v109q0 106 60.5 154t167.5 48q33 0 66.5 -3t61.5 -10q8 -2 12 -5.5
t4 -12.5v-241q0 -24 10.5 -30.5t41.5 -6.5h46v-86h-67q-63 0 -89 22.5t-26 81.5v207q-20 3 -34.5 4t-32.5 1q-32 0 -57.5 -6t-43 -20.5t-27 -39.5t-9.5 -63v-181v-32t-0.5 -37.5t-1 -37.5t-1.5 -32q0 -17 -21 -21q-37 -7 -83 -10t-94 -3q-89 0 -147 21.5t-93 60.5t-49 94.5
t-14 123.5zM187 -267q0 10 6.5 15.5t16.5 5.5h37q9 0 16 -5.5t7 -15.5v-50q0 -8 -7.5 -14t-15.5 -6h-37q-10 0 -16.5 6t-6.5 14v50zM349 -267q0 10 7 15.5t15 5.5h39q8 0 15 -5.5t7 -15.5v-50q0 -8 -7 -14t-15 -6h-39q-8 0 -15 6t-7 14v50z" />
    <glyph glyph-name="YehFarsiSep" unicode="&#x6cc;" horiz-adv-x="928" arabic-form="isolated" 
d="M128 276q17 0 16 -20q-2 -23 -5 -49.5t-3 -43.5q0 -51 6 -96t28.5 -79.5t67.5 -54.5t122 -20q30 0 59.5 1.5t52.5 6.5q0 27 0.5 48t1 39.5t0.5 36v38.5v110q0 107 61 154.5t170 47.5q31 0 65 -3t62 -10q8 -2 12 -5.5t4 -12.5v-344q0 -8 -5.5 -14t-13.5 -6h-47q-8 0 -13 6
t-5 14v291q-21 3 -36 4t-33 1q-32 0 -57.5 -6t-43 -20.5t-27 -39.5t-9.5 -63v-181v-33v-38.5t-0.5 -38.5t-1.5 -32q0 -17 -22 -22q-38 -7 -83.5 -10t-93.5 -3q-90 0 -148 21t-92.5 60.5t-48 96t-13.5 126.5q0 9 1 24t2.5 32.5t3.5 35t5 32.5q3 19 19 19h42z" />
    <glyph glyph-name="YehFarsiFin" unicode="&#x6cc;" horiz-adv-x="939" arabic-form="final" 
d="M129 276q18 0 15 -20q-2 -23 -4.5 -49.5t-2.5 -43.5q0 -51 6 -96t28.5 -79.5t66.5 -54.5t121 -20q30 0 60 1.5t53 6.5q0 27 0.5 48t1 39.5t0.5 36v38.5v109q0 106 61 154.5t170 48.5q31 0 64 -3t61 -10q8 -2 12 -5.5t4 -12.5v-241q0 -24 10.5 -30.5t41.5 -6.5h41v-86h-62
q-62 0 -88.5 22.5t-26.5 81.5v207q-20 3 -34.5 4t-32.5 1q-32 0 -57.5 -6t-43 -20.5t-27 -39.5t-9.5 -63v-181v-33v-38.5t-0.5 -38.5t-1.5 -32q-1 -17 -23 -22q-38 -7 -83.5 -10t-93.5 -3q-89 0 -147.5 21t-92.5 60.5t-47.5 96t-13.5 126.5q0 9 1 24t2.5 32.5t3.5 35t5 32.5
q3 19 19 19h43z" />
    <glyph glyph-name="YehHamzaAboveSep" unicode="&#x626;" horiz-adv-x="928" arabic-form="isolated" 
d="M128 276q17 0 16 -20q-2 -23 -5 -49.5t-3 -43.5q0 -51 6 -96t28.5 -79.5t67.5 -54.5t122 -20q30 0 59.5 1.5t52.5 6.5q0 27 0.5 48t1 39.5t0.5 36v38.5v110q0 107 61 154.5t170 47.5q31 0 65 -3t62 -10q8 -2 12 -5.5t4 -12.5v-344q0 -8 -5.5 -14t-13.5 -6h-47q-8 0 -13 6
t-5 14v291q-21 3 -36 4t-33 1q-32 0 -57.5 -6t-43 -20.5t-27 -39.5t-9.5 -63v-181v-33v-38.5t-0.5 -38.5t-1.5 -32q0 -17 -22 -22q-38 -7 -83.5 -10t-93.5 -3q-90 0 -148 21t-92.5 60.5t-48 96t-13.5 126.5q0 9 1 24t2.5 32.5t3.5 35t5 32.5q3 19 19 19h42zM51 384
q-18 0 -18 12v17q0 10 18 10h17q-9 11 -13 26.5t-4 30.5q0 42 24.5 61.5t69.5 19.5q8 0 18 -1t20 -3q11 -4 11 -12v-14q0 -11 -13 -11q-2 0 -14 0.5t-17 0.5q-53 0 -53 -45q0 -21 7 -34.5t15 -17.5h67q17 0 17 -12v-16q0 -8 -4.5 -10t-12.5 -2h-135z" />
    <glyph glyph-name="YehHamzaAboveFin" unicode="&#x626;" horiz-adv-x="939" arabic-form="final" 
d="M51 384q-18 0 -18 12v17q0 10 18 10h17q-9 11 -13 26.5t-4 30.5q0 42 24.5 61.5t69.5 19.5q8 0 18 -1t20 -3q11 -4 11 -12v-14q0 -11 -13 -11q-2 0 -14 0.5t-17 0.5q-53 0 -53 -45q0 -21 7 -34.5t15 -17.5h67q17 0 17 -12v-16q0 -8 -4.5 -10t-12.5 -2h-135zM129 276
q18 0 15 -20q-2 -23 -4.5 -49.5t-2.5 -43.5q0 -51 6 -96t28.5 -79.5t66.5 -54.5t121 -20q30 0 60 1.5t53 6.5q0 27 0.5 48t1 39.5t0.5 36v38.5v109q0 106 61 154.5t170 48.5q31 0 64 -3t61 -10q8 -2 12 -5.5t4 -12.5v-241q0 -24 10.5 -30.5t41.5 -6.5h41v-86h-62
q-62 0 -88.5 22.5t-26.5 81.5v207q-20 3 -34.5 4t-32.5 1q-32 0 -57.5 -6t-43 -20.5t-27 -39.5t-9.5 -63v-181v-33v-38.5t-0.5 -38.5t-1.5 -32q-1 -17 -23 -22q-38 -7 -83.5 -10t-93.5 -3q-89 0 -147.5 21t-92.5 60.5t-47.5 96t-13.5 126.5q0 9 1 24t2.5 32.5t3.5 35t5 32.5
q3 19 19 19h43z" />
    <glyph glyph-name="YehBarreeSep" unicode="&#x6d2;" horiz-adv-x="993" arabic-form="isolated" 
d="M66 91q0 70 12.5 115.5t38.5 83.5q22 31 50.5 51.5t63 32t74 16t82.5 4.5h141q29 0 36.5 5t7.5 31v50.5v27.5v29.5t-1 56.5q0 8 4.5 13.5t12.5 5.5h49q8 0 13 -5.5t5 -13.5q2 -37 2.5 -58.5t0.5 -43.5v-19v-27.5t-0.5 -32t-1.5 -32t-2 -27.5q-2 -10 -6.5 -19t-16.5 -14
q-8 -3 -22.5 -4.5t-32.5 -2.5t-37.5 -1.5t-35.5 -0.5h-126q-47 0 -88 -8.5t-71 -29.5t-48 -55.5t-19 -85.5v-16q0 -18 3 -24.5t17 -6.5h759q8 0 14 -4.5t6 -12.5v-52q0 -8 -6 -12.5t-14 -4.5h-580h-56.5t-72 0.5t-67.5 1.5t-44 2q-29 3 -37 29q-4 12 -5.5 26.5t-1.5 31.5z
" />
    <glyph glyph-name="YehBarreeFin" unicode="&#x6d2;" horiz-adv-x="731" arabic-form="final" 
d="M783 -175v-48q0 -8 -6 -12.5t-14 -4.5h-495h-52t-62.5 0.5t-58 1t-39.5 1.5q-15 2 -23 9.5t-13 19.5t-6.5 30t-1.5 34q0 57 19 101.5t57 73.5q38 30 95 42.5t135 12.5h413v-86h-422q-45 0 -83.5 -4.5t-66.5 -17.5t-44.5 -36.5t-17.5 -60.5v-10q0 -17 3.5 -23t16.5 -6h646
q8 0 14 -4.5t6 -12.5z" />
    <glyph glyph-name="YehBarreeHamzaAboveSep" unicode="&#x6d3;" horiz-adv-x="993" arabic-form="isolated" 
d="M66 91q0 70 12.5 115.5t38.5 83.5q22 31 50.5 51.5t63 32t74 16t82.5 4.5h141q29 0 36.5 5t7.5 31v50.5v27.5v29.5t-1 56.5q0 8 4.5 13.5t12.5 5.5h49q8 0 13 -5.5t5 -13.5q2 -37 2.5 -58.5t0.5 -43.5v-19v-27.5t-0.5 -32t-1.5 -32t-2 -27.5q-2 -10 -6.5 -19t-16.5 -14
q-8 -3 -22.5 -4.5t-32.5 -2.5t-37.5 -1.5t-35.5 -0.5h-126q-47 0 -88 -8.5t-71 -29.5t-48 -55.5t-19 -85.5v-16q0 -18 3 -24.5t17 -6.5h759q8 0 14 -4.5t6 -12.5v-52q0 -8 -6 -12.5t-14 -4.5h-580h-56.5t-72 0.5t-67.5 1.5t-44 2q-29 3 -37 29q-4 12 -5.5 26.5t-1.5 31.5z
M539 674q-18 0 -18 12v17q0 10 18 10h17q-9 11 -13 26.5t-4 30.5q0 42 24.5 61.5t69.5 19.5q8 0 18 -1t20 -3q11 -4 11 -12v-14q0 -11 -13 -11q-2 0 -14 0.5t-17 0.5q-53 0 -53 -45q0 -21 7 -34.5t15 -17.5h67q17 0 17 -12v-16q0 -8 -4.5 -10t-12.5 -2h-135z" />
    <glyph glyph-name="YehBarreeHamzaAboveFin" unicode="&#x6d3;" horiz-adv-x="731" arabic-form="final" 
d="M46 177q-18 0 -18 12v17q0 10 18 10h17q-9 11 -13 26.5t-4 30.5q0 42 24.5 61.5t69.5 19.5q8 0 18 -1t20 -3q11 -4 11 -12v-14q0 -11 -13 -11q-2 0 -14 0.5t-17 0.5q-53 0 -53 -45q0 -21 7 -34.5t15 -17.5h67q17 0 17 -12v-16q0 -8 -4.5 -10t-12.5 -2h-135zM783 -175v-48
q0 -8 -6 -12.5t-14 -4.5h-495h-52t-62.5 0.5t-58 1t-39.5 1.5q-15 2 -23 9.5t-13 19.5t-6.5 30t-1.5 34q0 57 19 101.5t57 73.5q38 30 95 42.5t135 12.5h413v-86h-422q-45 0 -83.5 -4.5t-66.5 -17.5t-44.5 -36.5t-17.5 -60.5v-10q0 -17 3.5 -23t16.5 -6h646q8 0 14 -4.5
t6 -12.5z" />
    <glyph glyph-name="ShaddaFathaNS" unicode="&#xfc60;" horiz-adv-x="0" arabic-form="isolated" 
d="M-54 768q-33 0 -45 19t-12 50v14.5t1 14.5q2 14 13 14h12q14 0 12 -14q-1 -10 -1 -17v-15q0 -32 26 -32h3q6 0 16 4.5t10 21.5v37q0 5 3.5 9.5t9.5 4.5h12q6 0 9.5 -4.5t3.5 -9.5v-37q0 -17 10 -21.5t15 -4.5h4q11 0 18.5 7.5t7.5 25.5v15t-1 17q-1 5 2.5 9.5t9.5 4.5h12
q11 0 13 -14q1 -9 1 -15.5v-14.5q0 -31 -13.5 -50t-47.5 -19h-4q-13 0 -25 4.5t-19 15.5h-3q-8 -11 -21 -15.5t-27 -4.5h-5zM-114 942q0 11 18 11h191q19 0 19 -11v-12q0 -8 -5 -9.5t-14 -1.5h-191q-18 0 -18 11v12z" />
    <glyph glyph-name="ShaddaKasraNS" unicode="&#xfc62;" horiz-adv-x="0" arabic-form="isolated" 
d="M-54 851q-33 0 -45 19t-12 50v14.5t1 14.5q2 14 13 14h12q14 0 12 -14q-1 -10 -1 -17v-15q0 -32 26 -32h3q6 0 16 4.5t10 21.5v37q0 5 3.5 9.5t9.5 4.5h12q6 0 9.5 -4.5t3.5 -9.5v-37q0 -17 10 -21.5t15 -4.5h4q11 0 18.5 7.5t7.5 25.5v15t-1 17q-1 5 2.5 9.5t9.5 4.5h12
q11 0 13 -14q1 -9 1 -15.5v-14.5q0 -31 -13.5 -50t-47.5 -19h-4q-13 0 -25 4.5t-19 15.5h-3q-8 -11 -21 -15.5t-27 -4.5h-5zM-114 800q0 8 5 9.5t13 1.5h191q19 0 19 -11v-11q0 -8 -5 -10t-14 -2h-191q-18 0 -18 12v11z" />
    <glyph glyph-name="ShaddaKasratanNS" unicode="&#xfc5f;" horiz-adv-x="0" arabic-form="isolated" 
d="M-54 925q-33 0 -45 19t-12 50v14.5t1 14.5q2 14 13 14h12q14 0 12 -14q-1 -10 -1 -17v-15q0 -32 26 -32h3q6 0 16 4.5t10 21.5v37q0 5 3.5 9.5t9.5 4.5h12q6 0 9.5 -4.5t3.5 -9.5v-37q0 -17 10 -21.5t15 -4.5h4q11 0 18.5 7.5t7.5 25.5v15t-1 17q-1 5 2.5 9.5t9.5 4.5h12
q11 0 13 -14q1 -9 1 -15.5v-14.5q0 -31 -13.5 -50t-47.5 -19h-4q-13 0 -25 4.5t-19 15.5h-3q-8 -11 -21 -15.5t-27 -4.5h-5zM-114 798q0 8 5 9.5t13 1.5h191q19 0 19 -11v-12q0 -8 -5 -9.5t-14 -1.5h-191q-18 0 -18 11v12zM-114 875q0 8 5 9.5t13 1.5h191q19 0 19 -11v-11
q0 -8 -5 -10t-14 -2h-191q-18 0 -18 12v11z" />
    <glyph glyph-name="ShaddaDammaNS" unicode="&#xfc61;" horiz-adv-x="0" arabic-form="isolated" 
d="M-54 768q-33 0 -45 19t-12 50v14.5t1 14.5q2 14 13 14h12q14 0 12 -14q-1 -10 -1 -17v-15q0 -32 26 -32h3q6 0 16 4.5t10 21.5v37q0 5 3.5 9.5t9.5 4.5h12q6 0 9.5 -4.5t3.5 -9.5v-37q0 -17 10 -21.5t15 -4.5h4q11 0 18.5 7.5t7.5 25.5v15t-1 17q-1 5 2.5 9.5t9.5 4.5h12
q11 0 13 -14q1 -9 1 -15.5v-14.5q0 -31 -13.5 -50t-47.5 -19h-4q-13 0 -25 4.5t-19 15.5h-3q-8 -11 -21 -15.5t-27 -4.5h-5zM-117 940q0 8 5 9.5t14 1.5h78q-2 8 -2 15v13q0 29 19 47.5t51 18.5t50.5 -16.5t18.5 -45.5q0 -31 -19 -48t-69 -17h-127q-19 0 -19 11v11zM40 951
q22 0 31 9t9 23q0 15 -9.5 22t-21.5 7q-14 0 -24 -8t-10 -28q0 -16 3 -25h22z" />
    <glyph glyph-name="ShaddaDammatanNS" unicode="&#xfc5e;" horiz-adv-x="0" arabic-form="isolated" 
d="M-54 768q-33 0 -45 19t-12 50v14.5t1 14.5q2 14 13 14h12q14 0 12 -14q-1 -10 -1 -17v-15q0 -32 26 -32h3q6 0 16 4.5t10 21.5v37q0 5 3.5 9.5t9.5 4.5h12q6 0 9.5 -4.5t3.5 -9.5v-37q0 -17 10 -21.5t15 -4.5h4q11 0 18.5 7.5t7.5 25.5v15t-1 17q-1 5 2.5 9.5t9.5 4.5h12
q11 0 13 -14q1 -9 1 -15.5v-14.5q0 -31 -13.5 -50t-47.5 -19h-4q-13 0 -25 4.5t-19 15.5h-3q-8 -11 -21 -15.5t-27 -4.5h-5zM-133 993q0 11 18 11h28q8 0 10.5 -3t3.5 -7q2 -8 3 -14t4 -12q3 -8 10 -12.5t24 -4.5h11q-2 8 -2 15v13q0 29 19.5 47.5t51.5 18.5t50.5 -16.5
t18.5 -45.5q0 -31 -19 -48t-69 -17h-59q-35 0 -51.5 12t-22.5 41h-11q-18 0 -18 11v11zM41 951q21 0 29.5 9t8.5 23q0 15 -9 22t-22 7q-14 0 -24 -8t-10 -28q0 -7 1 -13.5t3 -11.5h23z" />
    <glyph glyph-name="ShaddaSmallAlefAboveNS" unicode="&#xfc63;" horiz-adv-x="0" arabic-form="isolated" 
d="M-20 1018q0 14 13 14h14q13 0 13 -14v-88q0 -5 -3.5 -9.5t-9.5 -4.5h-14q-6 0 -9.5 4.5t-3.5 9.5v88zM-54 768q-33 0 -45 18.5t-12 49.5v15t1 15q2 14 13 14h12q14 0 12 -14q-1 -10 -1 -17v-15q0 -32 26 -32h3q6 0 16 4t10 21v37q0 6 3.5 10.5t9.5 4.5h12q6 0 9.5 -4.5
t3.5 -10.5v-37q0 -17 10 -21t15 -4h4q11 0 18.5 7.5t7.5 25.5v15t-1 17q-1 5 2.5 9.5t9.5 4.5h12q11 0 13 -14q1 -10 1 -16v-14q0 -31 -13.5 -50t-47.5 -19h-4q-13 0 -25 4t-19 15h-3q-8 -11 -21 -15t-27 -4h-5z" />
    <glyph glyph-name=".notdef" horiz-adv-x="500" 
d="M12 665h475v-665h-475v665zM250 375l161 243h-323zM60 91l7 10t18 27t25.5 39t29.5 45q35 54 81 121l-161 242v-484zM278 333l162 -243v485zM250 290l-162 -242h323z" />
    <glyph glyph-name="space" unicode=" " horiz-adv-x="247" 
 />
    <glyph glyph-name="exclam" unicode="!" horiz-adv-x="350" 
d="M212 213q0 -8 -5.5 -13.5t-13.5 -5.5h-36q-8 0 -14 5.5t-6 13.5l-7 520q0 8 6 13.5t14 5.5h50q8 0 14 -5.5t6 -13.5zM218 19q0 -19 -19 -19h-48q-8 0 -13.5 5.5t-5.5 13.5v94q0 8 5.5 13.5t13.5 5.5h48q8 0 13.5 -5.5t5.5 -13.5v-94z" />
    <glyph glyph-name="quotedbl" unicode="&#x22;" horiz-adv-x="362" 
d="M333 741q0 -5 -1 -8l-58 -189q-5 -19 -19 -19h-47q-9 0 -9 10q0 6 1 9l46 189q4 19 20 19h56q11 0 11 -11zM163 741q0 -5 -1 -8l-58 -189q-5 -19 -19 -19h-47q-9 0 -9 10q0 6 1 9l46 189q4 19 20 19h56q11 0 11 -11z" />
    <glyph glyph-name="numbersign" unicode="#" horiz-adv-x="660" 
d="M610 510l-2 -22q-2 -19 -20 -19h-97l-18 -202h98q8 0 12 -5.5t4 -13.5v-2l-2 -21q-2 -19 -20 -19h-98l-16 -187q-1 -8 -5.5 -13.5t-12.5 -5.5h-44q-8 0 -12 5t-4 12v2l16 187h-155l-16 -187q-1 -8 -5.5 -13.5t-12.5 -5.5h-45q-7 0 -11.5 5t-4.5 12v2l16 187h-93
q-8 0 -12 5.5t-4 13.5v2l2 21q2 19 20 19h93l18 202h-94q-8 0 -12 5.5t-4 13.5v2l2 22q2 19 20 19h93l17 193q1 8 6 13.5t13 5.5h45q7 0 11 -5t4 -12v-2l-17 -193h155l17 193q1 8 6 13.5t13 5.5h44q8 0 11.5 -5t3.5 -12v-2l-17 -193h98q8 0 12 -5.5t4 -13.5v-2zM258 469
l-18 -202h155l18 202h-155z" />
    <glyph glyph-name="dollar" unicode="$" 
d="M528 193q0 -32 -8.5 -63.5t-29 -58.5t-56 -47t-89.5 -27v-94q0 -8 -6 -14t-14 -6h-47q-8 0 -14 6t-6 14v90q-45 1 -79.5 5t-63.5 9q-13 2 -16 6t-3 12v41q0 8 5 12t12 4h3q17 -2 38.5 -3.5t44 -2.5t44 -2t38.5 -1q45 0 74.5 9t46.5 25t24 38t7 48q0 19 -6 34.5t-20 30.5
t-37 31.5t-57 37.5l-97 59q-69 42 -103.5 84.5t-34.5 102.5q0 78 46.5 120.5t133.5 53.5v86q0 8 6 14t14 6h47q8 0 14 -6t6 -14v-83q41 -2 81 -5.5t65 -7.5q17 -3 17 -17v-43q0 -16 -17 -16h-2q-33 2 -80.5 5.5t-91.5 3.5q-78 0 -112.5 -21t-34.5 -76q0 -35 26 -61t83 -60
l92 -55q43 -26 73 -50t49 -48t27 -50t8 -56z" />
    <glyph glyph-name="percent" unicode="%" horiz-adv-x="794" 
d="M749 155q0 -82 -35.5 -122t-98.5 -40t-99 40t-36 122v93q0 83 36 122.5t99 39.5t98.5 -39.5t35.5 -122.5v-93zM650 737q0 -3 -5 -13l-418 -708q-6 -11 -10 -15.5t-12 -4.5h-49q-10 0 -10 8q0 7 4 12l418 708q7 11 11 15t12 4h51q8 0 8 -6zM314 496q0 -82 -35.5 -122
t-98.5 -40t-99 40t-36 122v93q0 83 36 122t99 39t98.5 -39t35.5 -122v-93zM687 248q0 57 -19 81t-53 24t-53.5 -24t-19.5 -81v-93q0 -57 19.5 -81t53.5 -24t53 24t19 81v93zM252 589q0 57 -19 81t-53 24t-53.5 -24t-19.5 -81v-93q0 -57 19.5 -81t53.5 -24t53 24t19 81v93z
" />
    <glyph glyph-name="ampersand" unicode="&#x26;" horiz-adv-x="678" 
d="M641 11q0 -5 -3.5 -8t-7.5 -3h-69q-7 0 -10 2t-6 5l-50 54q-37 -32 -86 -50t-111 -18q-46 0 -90 9.5t-78.5 31t-55.5 56.5t-21 86v8q0 31 8.5 56.5t26 49t44.5 45.5t65 46l-7 8q-35 40 -56 69.5t-31.5 51.5t-13.5 39t-3 34v8q0 80 56.5 119.5t153.5 39.5q42 0 78 -10
t63 -30t42.5 -49.5t15.5 -69.5v-8q0 -25 -6 -47t-23 -45t-47 -48.5t-77 -57.5l-28 -19l181 -195q20 36 29.5 81t9.5 95v14q0 16 16 16h43q17 0 17 -16v-14q0 -66 -15.5 -124.5t-47.5 -105.5l89 -95q5 -5 5 -11zM412 591q0 50 -32 71t-84 21q-57 0 -92.5 -20t-35.5 -72v-8
q0 -13 2 -26t10.5 -29.5t25.5 -39t47 -55.5l10 -11l34 21q36 22 58.5 39t35 32.5t17 31.5t4.5 37v8zM248 326q-30 -19 -50 -35t-31.5 -32t-16.5 -34t-5 -41v-8q0 -30 12.5 -52t33.5 -35.5t49 -20t58 -6.5q48 0 85 14t64 37z" />
    <glyph glyph-name="quotesingle" unicode="'" horiz-adv-x="192" 
d="M163 741q0 -5 -1 -8l-58 -189q-5 -19 -19 -19h-47q-9 0 -9 10q0 6 1 9l46 189q4 19 20 19h56q11 0 11 -11z" />
    <glyph glyph-name="parenleft" unicode="(" horiz-adv-x="305" 
d="M280 -201q0 -8 -10 -8h-47q-8 0 -12.5 1.5t-10.5 9.5q-33 40 -59 93t-44 113t-27.5 125.5t-9.5 131.5v13q0 66 9.5 131.5t27.5 125.5t44 112.5t59 93.5q6 8 10.5 9.5t12.5 1.5h47q10 0 10 -8q0 -6 -3 -10q-64 -94 -96.5 -209t-32.5 -247v-13q0 -132 32.5 -247t96.5 -209
q3 -5 3 -10z" />
    <glyph glyph-name="parenright" unicode=")" horiz-adv-x="305" 
d="M259 265q0 -66 -9.5 -131.5t-27.5 -125.5t-44 -113t-59 -93q-6 -8 -10.5 -9.5t-12.5 -1.5h-47q-10 0 -10 8q0 5 3 10q64 94 96.5 209t32.5 247v13q0 132 -32.5 247t-96.5 209q-3 4 -3 10q0 8 10 8h47q8 0 12.5 -1.5t10.5 -9.5q33 -41 59 -93.5t44 -112.5t27.5 -125.5
t9.5 -131.5v-13z" />
    <glyph glyph-name="asterisk" unicode="*" horiz-adv-x="465" 
d="M419 598q0 -10 -14 -15l-125 -39l77 -106q5 -7 5 -13q0 -7 -6 -11l-24 -18q-5 -3 -8 -3q-8 0 -15 10l-76 106l-76 -106q-7 -10 -15 -10q-4 0 -8 3l-25 18q-6 4 -6 11q0 6 5 13l78 106l-124 39q-6 2 -10.5 6t-4.5 9q0 2 0.5 2.5t0.5 2.5l9 29q3 10 13 10q3 0 9 -2l124 -41
v131q0 19 15 19h30q15 0 15 -19l-1 -131l125 41q6 2 9 2q10 0 13 -10l9 -29q1 -2 1 -5z" />
    <glyph glyph-name="plus" unicode="+" 
d="M530 371q0 -8 -6 -12t-14 -4h-172v-171q0 -8 -4 -14t-12 -6h-40q-8 0 -12 6t-4 14v171h-171q-8 0 -14 4t-6 12v40q0 8 6 12t14 4h171v172q0 8 4 14t12 6h40q8 0 12 -6t4 -14v-172h172q8 0 14 -4t6 -12v-40z" />
    <glyph glyph-name="comma" unicode="," horiz-adv-x="214" 
d="M169 118q0 -2 -2 -8l-75 -189q-4 -10 -7.5 -14.5t-11.5 -4.5h-41q-12 0 -12 12q0 5 1 7l57 189q6 19 20 19h58q13 0 13 -11z" />
    <glyph glyph-name="hyphen" unicode="-" horiz-adv-x="333" 
d="M285 273q0 -17 -19 -17h-199q-19 0 -19 17v39q0 8 5.5 13t13.5 5h199q19 0 19 -18v-39z" />
    <glyph glyph-name="period" unicode="." horiz-adv-x="214" 
d="M150 21q0 -8 -5.5 -14t-13.5 -6h-48q-8 0 -13.5 6t-5.5 14v93q0 8 5.5 13.5t13.5 5.5h48q8 0 13.5 -5.5t5.5 -13.5v-93z" />
    <glyph glyph-name="slash" unicode="/" horiz-adv-x="355" 
d="M333 729q0 -4 -1 -6l-226 -703q-2 -8 -6 -14t-12 -6h-51q-7 0 -10.5 4.5t-3.5 9.5q0 4 1 6l227 703q2 8 5.5 14t11.5 6h51q7 0 10.5 -4.5t3.5 -9.5z" />
    <glyph glyph-name="zero" unicode="0" 
d="M548 304q0 -83 -17 -142t-49 -96.5t-77 -55t-102 -17.5t-102.5 17.5t-77.5 55t-49 96.5t-17 142v135q0 83 17 142t49 96.5t77.5 55t102.5 17.5t102 -17.5t77 -55t49 -96.5t17 -142v-135zM457 439q0 63 -11 107.5t-31 72.5t-48.5 41t-63.5 13t-63.5 -13t-48.5 -41
t-31 -72.5t-11 -107.5v-135q0 -63 11 -107.5t31 -72.5t48.5 -41t63.5 -13t63.5 13t48.5 41t31 72.5t11 107.5v135z" />
    <glyph glyph-name="one" unicode="1" 
d="M90 0q-8 0 -14 5t-6 13v44q0 8 6 12.5t14 4.5h159v570l-157 -66q-6 -2 -14 -2.5t-8 10.5v51q0 5 2.5 7.5t7.5 5.5l179 82q12 6 21 6h41q8 0 13.5 -5.5t5.5 -13.5v-645h160q8 0 14 -4.5t6 -12.5v-44q0 -8 -6 -13t-14 -5h-410z" />
    <glyph glyph-name="two" unicode="2" 
d="M526 571q0 -59 -30 -102.5t-100 -90.5l-96 -65q-42 -28 -69 -52.5t-42.5 -49.5t-22 -51.5t-6.5 -59.5v-21h337q8 0 14 -4.5t6 -12.5v-44q0 -8 -6 -13t-14 -5h-397q-8 0 -14 5.5t-6 13.5v81q0 78 35.5 143t117.5 120l101 68q31 21 51 37t31.5 31.5t16 32t4.5 39.5
q0 54 -34.5 78.5t-115.5 24.5q-39 0 -87 -4.5t-90 -10.5h-4q-16 0 -16 18v35q0 8 5.5 12t13.5 6q38 10 85.5 15t92.5 5q122 0 180.5 -43t58.5 -136z" />
    <glyph glyph-name="three" unicode="3" 
d="M521 207q0 -56 -18.5 -96.5t-51.5 -66.5t-78.5 -38.5t-100.5 -12.5q-48 0 -90.5 6t-78.5 14q-8 2 -13.5 6.5t-5.5 12.5v34q0 17 17 17h3q45 -6 89 -10t79 -4q82 0 119 33t37 105v21q0 20 -5.5 41.5t-19 39.5t-36 29.5t-56.5 11.5h-182q-19 0 -19 18v35q0 19 19 19h182
q36 0 59 11t35.5 28.5t17.5 38.5t5 41v14q0 62 -35.5 90.5t-120.5 28.5q-44 0 -81.5 -4.5t-86.5 -10.5h-3q-17 0 -17 17v35q0 7 5.5 12t13.5 7q36 8 78.5 14t90.5 6q56 0 102 -9.5t78.5 -32.5t50.5 -60.5t18 -92.5v-14q0 -51 -24 -92t-71 -64q27 -13 45 -31t29 -39t16 -43
t5 -44v-21z" />
    <glyph glyph-name="four" unicode="4" 
d="M567 216q0 -18 -19 -18h-87v-178q0 -8 -4.5 -14t-12.5 -6h-58q-8 0 -12.5 6t-4.5 14v178h-289q-23 0 -32 8.5t-9 30.5v38q0 21 12 37l296 415q4 6 10 11t19 5h59q26 0 26 -22v-447h87q8 0 13.5 -5t5.5 -13v-40zM370 616q0 6 -4 6h-1q-4 0 -8 -6l-231 -328q-3 -5 -3 -8
q0 -6 8 -6h239v342z" />
    <glyph glyph-name="five" unicode="5" 
d="M528 226q0 -112 -66.5 -172.5t-188.5 -60.5q-49 0 -93.5 4.5t-82.5 13.5q-8 2 -13.5 6t-5.5 14v37q0 15 15 15h5q48 -8 92.5 -11t82.5 -3q85 0 124 40t39 117v15q0 75 -49.5 104.5t-159.5 29.5h-120q-7 0 -11.5 5t-4.5 12v1l28 333q1 8 6.5 12.5t13.5 4.5h344
q8 0 14 -4.5t6 -12.5v-44q0 -8 -6 -12t-14 -4h-287l-16 -216h47q70 0 125.5 -10t94.5 -34.5t60 -64.5t21 -100v-15z" />
    <glyph glyph-name="six" unicode="6" 
d="M546 246q0 -119 -60.5 -186t-183.5 -67q-112 0 -177 68.5t-65 215.5v175q0 80 16.5 136.5t49.5 92.5t82 52.5t113 16.5q60 0 100.5 -5t71.5 -12q9 -2 16 -6t7 -13v-39q0 -9 -5 -13.5t-13 -4.5q-2 0 -3 0.5t-3 0.5q-38 8 -80.5 12t-90.5 4q-58 0 -92 -16.5t-51.5 -45.5
t-22.5 -70t-5 -90v-11q31 7 67.5 13.5t83.5 6.5q49 0 93 -10t78 -34t54 -64.5t20 -100.5v-6zM456 252q0 40 -13 67t-35 42.5t-49.5 22t-57.5 6.5q-18 0 -39 -1.5t-41.5 -4t-39 -6t-31.5 -6.5v-95q0 -61 10 -101.5t29.5 -64.5t48 -34t64.5 -10q35 0 63.5 9t48.5 30t31 55
t11 85v6z" />
    <glyph glyph-name="seven" unicode="7" 
d="M533 680q0 -24 -13 -52l-288 -613q-8 -15 -22 -15h-60q-8 0 -11.5 4.5t-3.5 10.5q0 5 3 11l302 628q1 1 1 4q0 7 -7 7h-341q-8 0 -14 4.5t-6 12.5v42q0 8 6 13.5t14 5.5h365q42 0 58.5 -18.5t16.5 -44.5z" />
    <glyph glyph-name="eight" unicode="8" 
d="M551 207q0 -55 -19.5 -95t-52.5 -66.5t-77 -39.5t-94 -13h-10q-50 0 -94 13t-77 39.5t-52.5 66.5t-19.5 95v19q0 23 6.5 46t18.5 44.5t30 40t42 31.5q-48 24 -71.5 65t-23.5 91v9q0 52 18.5 89t50.5 61t76.5 35.5t95.5 11.5h10q51 0 95.5 -11.5t76.5 -35.5t50.5 -61
t18.5 -89v-9q0 -50 -23.5 -91t-71.5 -65q24 -13 42 -31.5t30 -40t18.5 -44.5t6.5 -46v-19zM461 553q0 60 -39 91.5t-114 31.5h-10q-75 0 -114 -31.5t-39 -91.5v-9q0 -23 7 -45t22 -38.5t39 -26.5t59 -10h62q34 0 58.5 10t39.5 26.5t22 38.5t7 45v9zM460 226q0 21 -7 43.5
t-22 41t-39 30t-58 11.5h-62q-35 0 -59 -11.5t-39 -30t-21.5 -41t-6.5 -43.5v-19q0 -65 38.5 -101.5t113.5 -36.5h10q75 0 113.5 36.5t38.5 101.5v19z" />
    <glyph glyph-name="nine" unicode="9" 
d="M537 291q0 -80 -16.5 -136.5t-49.5 -92.5t-82 -52.5t-113 -16.5q-60 0 -100.5 5t-71.5 12q-10 2 -17 6t-7 13v39q0 9 5 13.5t13 4.5q2 0 3 -0.5t3 -0.5q38 -8 80.5 -12t90.5 -4q58 0 92 16.5t52 45.5t23 70t5 90v11q-32 -7 -68.5 -13.5t-82.5 -6.5q-49 0 -93.5 10
t-78.5 34t-54 64.5t-20 100.5v6q0 119 60.5 186t183.5 67q56 0 101 -17t76.5 -51.5t48.5 -88.5t17 -127v-175zM447 466q0 61 -10 101.5t-29.5 64.5t-48 34t-64.5 10q-35 0 -64 -9t-49 -30t-31 -55t-11 -85v-6q0 -41 13 -67.5t35 -42t49.5 -22t57.5 -6.5q18 0 39 1.5t41.5 4
t38.5 6t32 6.5z" />
    <glyph glyph-name="colon" unicode=":" horiz-adv-x="219" 
d="M153 437q0 -8 -6 -13.5t-14 -5.5h-47q-8 0 -14 5.5t-6 13.5v93q0 8 6 14t14 6h47q8 0 14 -6t6 -14v-93zM153 19q0 -8 -6 -13.5t-14 -5.5h-47q-8 0 -14 5.5t-6 13.5v94q0 8 6 13.5t14 5.5h47q8 0 14 -5.5t6 -13.5v-94z" />
    <glyph glyph-name="semicolon" unicode=";" horiz-adv-x="219" 
d="M153 437q0 -19 -19 -19h-49q-8 0 -13.5 5.5t-5.5 13.5v93q0 8 5.5 14t13.5 6h49q8 0 13.5 -6t5.5 -14v-93zM157 117q0 -2 -2 -8l-75 -189q-4 -10 -7.5 -15t-11.5 -5h-40q-12 0 -12 13q0 5 1 7l57 189q6 19 20 19h57q13 0 13 -11z" />
    <glyph glyph-name="less" unicode="&#x3c;" 
d="M482 150q0 -10 -12 -10h-58q-8 0 -15 2.5t-16 10.5l-241 204q-18 15 -18 34t18 34l241 204q9 8 16 10.5t15 2.5h58q12 0 12 -10q0 -8 -10 -17l-262 -224l262 -224q10 -9 10 -17z" />
    <glyph glyph-name="equal" unicode="=" 
d="M515 482q0 -8 -6 -12t-14 -4h-385q-8 0 -14 4t-6 12v40q0 8 6 12t14 4h385q8 0 14 -4t6 -12v-40zM515 261q0 -8 -6 -12t-14 -4h-385q-8 0 -14 4t-6 12v40q0 8 6 12t14 4h385q8 0 14 -4t6 -12v-40z" />
    <glyph glyph-name="greater" unicode="&#x3e;" 
d="M483 391q0 -19 -18 -34l-241 -204q-16 -13 -31 -13h-58q-12 0 -12 10q0 8 10 17l262 224l-262 224q-10 9 -10 17q0 10 12 10h58q8 0 15 -2.5t16 -10.5l241 -204q18 -15 18 -34z" />
    <glyph glyph-name="question" unicode="?" horiz-adv-x="446" 
d="M386 587q0 -18 -3.5 -35t-13.5 -36.5t-28 -43.5t-46 -56l-45 -51q-14 -16 -24 -28t-16.5 -23t-9.5 -23.5t-3 -28.5v-49q0 -8 -6 -13.5t-14 -5.5h-44q-8 0 -13.5 5.5t-5.5 13.5v49q0 24 3 42.5t10.5 35.5t20 34.5t32.5 38.5l46 51q19 21 31 37t19 30t9.5 27.5t2.5 28.5v12
q0 40 -25 56t-77 16q-36 0 -68.5 -2.5t-66.5 -6.5h-3q-15 0 -15 17v35q0 9 2.5 15t14.5 8q31 6 66.5 9.5t69.5 3.5q43 0 79.5 -7.5t63.5 -25t42 -46.5t15 -72v-12zM198 19q0 -19 -19 -19h-48q-8 0 -14 5.5t-6 13.5v93q0 8 6 14t14 6h48q8 0 13.5 -6t5.5 -14v-93z" />
    <glyph glyph-name="at" unicode="@" horiz-adv-x="767" 
d="M728 366q0 -94 -24 -153.5t-70 -94.5q-47 -35 -114.5 -49.5t-155.5 -14.5q-75 0 -118 36.5t-43 102.5v9t1 9l11 117q8 77 54.5 118t127.5 41q32 0 65.5 -4.5t62.5 -10.5q10 -2 15.5 -6t5.5 -15v-4l-30 -313q47 7 75.5 26.5t44.5 49.5t21 69.5t5 86.5t-15 89.5t-46 74
t-77 50t-108 18.5q-66 0 -118 -18.5t-89 -51.5t-59 -80t-28 -104l-15 -152q-1 -8 -1.5 -16t-0.5 -16q0 -45 15.5 -84t46.5 -67.5t78.5 -45t111.5 -16.5q36 0 72 2t72 5h1q6 0 8 -4q1 -2 1 -3v-32q0 -8 -4 -10.5t-12 -3.5q-20 -2 -57 -5t-82 -3q-72 0 -130 19.5t-99.5 54.5
t-63.5 84.5t-22 109.5v15.5t1 15.5l15 156q6 68 33.5 124.5t73.5 97.5t110.5 63.5t144.5 22.5q77 0 135 -24.5t96.5 -65t58 -92.5t19.5 -108zM457 409q-16 2 -33.5 4t-34.5 2q-45 0 -65.5 -22t-25.5 -67l-11 -114q-1 -5 -1 -9v-8q0 -35 19 -52t63 -17h21h21.5t21.5 2z" />
    <glyph glyph-name="A" unicode="A" horiz-adv-x="633" 
d="M604 16q0 -16 -17 -16h-59q-7 0 -11 4.5t-6 10.5l-65 230h-259l-64 -230q-2 -6 -7 -10.5t-11 -4.5h-59q-17 0 -17 16q0 5 1 7l185 651q6 23 17.5 37.5t25.5 23t29.5 12t29.5 3.5t29 -3t29 -11.5t25.5 -23t17.5 -37.5l185 -652q1 -2 1 -7zM336 653q-5 18 -19 18
q-15 0 -20 -18l-91 -329h221z" />
    <glyph glyph-name="B" unicode="B" horiz-adv-x="616" 
d="M566 205q0 -63 -23.5 -104t-64 -65t-93.5 -33.5t-111 -9.5q-50 0 -92 2t-71 7q-17 2 -25 10t-8 27v666q0 34 32 37q25 3 67.5 5.5t91.5 2.5q60 0 113 -9t93 -31t63.5 -59t23.5 -94v-16q0 -56 -28 -96.5t-79 -60.5q52 -18 81.5 -61t29.5 -101v-17zM471 557
q0 36 -14.5 58.5t-41 35.5t-63.5 17.5t-83 4.5q-26 0 -52 -1t-47 -2v-248h154q43 0 71.5 9.5t45.5 26t23.5 38t6.5 45.5v16zM475 222q0 25 -7 48t-24.5 40.5t-46.5 28t-73 10.5h-154v-275q25 -1 51.5 -2.5t52.5 -1.5q46 0 83.5 6t63.5 21t40 41t14 67v17z" />
    <glyph glyph-name="C" unicode="C" horiz-adv-x="545" 
d="M510 26q0 -9 -6 -13.5t-14 -6.5q-16 -3 -32 -5.5t-35 -4t-43 -2.5t-56 -1q-46 0 -93 14t-85 49.5t-62 95t-24 150.5v139q0 92 24 151.5t62 94.5t85 49t93 14q48 0 91.5 -5.5t76.5 -10.5q16 -2 16 -13v-51q0 -5 -2 -8t-10 -3h-3q-14 1 -33.5 2.5t-42 3t-46.5 2.5t-46 1
q-37 0 -68.5 -11.5t-55 -38t-37 -70t-13.5 -107.5v-139q0 -63 13.5 -106.5t37 -70t55 -38.5t68.5 -12q21 0 44.5 1t46 2t41.5 2.5t33 2.5h4q16 0 16 -16v-41z" />
    <glyph glyph-name="D" unicode="D" horiz-adv-x="641" 
d="M584 304q0 -80 -21.5 -139t-61 -97t-95.5 -56.5t-125 -18.5q-29 0 -56.5 1t-52 2.5t-43.5 3t-30 3.5q-21 3 -21 25v687q0 22 21 25q11 2 30 3.5t43.5 3t52 2.5t56.5 1q69 0 125 -18t95.5 -56.5t61 -97t21.5 -139.5v-135zM493 439q0 68 -16.5 113t-45 71.5t-67 37.5
t-83.5 11q-35 0 -60.5 -0.5t-50.5 -2.5v-596q24 -2 50 -2h61q45 0 83.5 11t67 38t45 71.5t16.5 112.5v135z" />
    <glyph glyph-name="E" unicode="E" horiz-adv-x="551" 
d="M496 12q0 -5 -2.5 -9t-7.5 -5q-14 -2 -38 -2.5t-51.5 -1.5t-55.5 -1h-50q-106 0 -159.5 43t-53.5 143v385q0 100 53.5 143t159.5 43q22 0 49.5 -0.5t54.5 -1t51 -2l40 -2.5q5 -1 7.5 -5t2.5 -9v-50q0 -12 -11 -12h-193q-40 0 -64 -5.5t-37 -18t-17.5 -32.5t-4.5 -48v-139
h307q8 0 14 -6t6 -14v-38q0 -8 -6 -14t-14 -6h-307v-168q0 -29 4.5 -48.5t17.5 -32t37 -18t64 -5.5h193q11 0 11 -12v-51z" />
    <glyph glyph-name="F" unicode="F" horiz-adv-x="551" 
d="M496 367q0 -8 -6 -14t-14 -6h-307v-327q0 -8 -6 -14t-14 -6h-51q-8 0 -14 6t-6 14v544q0 100 53.5 143t159.5 43q22 0 49.5 -0.5t54.5 -1t51 -2l40 -2.5q5 -1 7.5 -5t2.5 -9v-50q0 -12 -11 -12h-193q-40 0 -64 -5.5t-37 -18t-17.5 -32.5t-4.5 -48v-139h307q8 0 14 -6
t6 -14v-38z" />
    <glyph glyph-name="G" unicode="G" horiz-adv-x="612" 
d="M534 30q0 -19 -18 -22q-37 -6 -82.5 -10.5t-116.5 -4.5q-47 0 -93.5 16.5t-83 53t-59.5 96t-23 145.5v134q0 91 24 151t62 96t86 50.5t96 14.5q70 0 115.5 -4.5t74.5 -9.5q7 -1 12 -4t5 -11v-50q0 -10 -13 -10h-4q-22 2 -42.5 3.5t-42.5 2t-47.5 1t-57.5 0.5
q-35 0 -67 -10.5t-56.5 -37t-39 -71t-14.5 -111.5v-134q0 -62 13 -105.5t36 -71.5t53.5 -40.5t65.5 -12.5q46 0 77 2t49 4v286q0 8 5 14t13 6h54q8 0 13.5 -6t5.5 -14v-336z" />
    <glyph glyph-name="H" unicode="H" horiz-adv-x="680" 
d="M602 20q0 -8 -6 -14t-14 -6h-51q-8 0 -14 6t-6 14v332h-342v-332q0 -8 -6 -14t-14 -6h-51q-8 0 -14 6t-6 14v703q0 8 6 14t14 6h51q8 0 14 -6t6 -14v-290h342v290q0 8 6 14t14 6h51q8 0 14 -6t6 -14v-703z" />
    <glyph glyph-name="I" unicode="I" horiz-adv-x="267" 
d="M179 20q0 -8 -5 -14t-13 -6h-55q-8 0 -13 6t-5 14v704q0 8 5 13.5t13 5.5h55q8 0 13 -5.5t5 -13.5v-704z" />
    <glyph glyph-name="J" unicode="J" horiz-adv-x="257" 
d="M179 -37q0 -72 -36 -107.5t-119 -35.5q-17 0 -32.5 3t-20.5 5q-6 3 -6 11v37q0 8 6 12.5t14 4.5h39q40 0 52 16.5t12 53.5v761q0 8 5.5 13.5t13.5 5.5h53q8 0 13.5 -5.5t5.5 -13.5v-761z" />
    <glyph glyph-name="K" unicode="K" horiz-adv-x="607" 
d="M564 10q0 -10 -13 -10h-78q-13 0 -22 10l-282 343v-333q0 -8 -5 -14t-13 -6h-55q-8 0 -13 6t-5 14v704q0 8 5.5 13.5t13.5 5.5h53q8 0 13.5 -5.5t5.5 -13.5v-323l288 333q5 5 8.5 7t11.5 2h72q14 0 14 -11q0 -6 -4 -10l-301 -340l301 -360q5 -5 5 -12z" />
    <glyph glyph-name="L" unicode="L" horiz-adv-x="514" 
d="M496 16q0 -5 -2.5 -9t-7.5 -5q-20 -3 -72 -6t-123 -3q-40 0 -78.5 6t-68.5 25.5t-48 56t-18 98.5v544q0 8 6 14t14 6h51q8 0 14 -6t6 -14v-544q0 -29 4.5 -48.5t17.5 -32t37 -18t64 -5.5h193q11 0 11 -12v-47z" />
    <glyph glyph-name="M" unicode="M" horiz-adv-x="761" 
d="M684 20q0 -8 -6 -14t-14 -6h-49q-8 0 -14 6t-6 14v593q0 3 -1 3t-2 -2l-143 -296q-8 -15 -17 -22t-28 -7h-46q-19 0 -28 7t-17 22l-143 296q-1 2 -2 2t-1 -3v-593q0 -8 -6 -14t-14 -6h-49q-8 0 -14 6t-6 14v694q0 12 8.5 20.5t20.5 8.5h65q14 0 20.5 -3.5t11.5 -13.5
l165 -343q5 -11 12 -11t12 11l165 343q5 10 11.5 13.5t20.5 3.5h65q12 0 20.5 -8.5t8.5 -20.5v-694z" />
    <glyph glyph-name="N" unicode="N" horiz-adv-x="680" 
d="M602 29q0 -12 -8.5 -20.5t-20.5 -8.5h-62q-24 0 -32 16l-309 587q-2 3 -3 3t-1 -3v-584q0 -8 -5 -13.5t-13 -5.5h-52q-8 0 -13 2t-5 10v703q0 12 8.5 20t20.5 8h55q21 0 28 -4.5t13 -15.5l307 -584l2 -3q1 0 1 3v585q0 8 5 13.5t13 5.5h53q8 0 13 -5.5t5 -13.5v-695z" />
    <glyph glyph-name="O" unicode="O" horiz-adv-x="661" 
d="M601 307q0 -83 -20 -142.5t-56 -97.5t-85.5 -56t-108.5 -18t-108.5 18t-85.5 56t-56.5 97.5t-20.5 142.5v129q0 83 20.5 142.5t56.5 97.5t85.5 56t108.5 18t108.5 -18t85.5 -56t56 -97.5t20 -142.5v-129zM509 436q0 63 -12.5 107t-35.5 72t-56 40.5t-74 12.5t-74 -12.5
t-56.5 -40.5t-36 -72t-12.5 -107v-129q0 -63 12.5 -107t35.5 -72t56.5 -40.5t74.5 -12.5t74 12.5t56 40.5t35.5 72t12.5 107v129z" />
    <glyph glyph-name="P" unicode="P" horiz-adv-x="593" 
d="M548 520q0 -63 -21 -105.5t-58.5 -69t-88.5 -38t-112 -11.5q-24 0 -52 1.5t-48 3.5v-281q0 -8 -5 -14t-13 -6h-54q-8 0 -13 6t-5 14v697q0 22 24 25q32 4 77 6t89 2q61 0 112 -11.5t88.5 -37t58.5 -67t21 -101.5v-13zM457 533q0 76 -46 108t-143 32q-23 0 -52.5 -1
t-47.5 -3v-293q9 0 22 -1t27 -1.5t27.5 -1t23.5 -0.5q103 0 146 35t43 113v13z" />
    <glyph glyph-name="Q" unicode="Q" horiz-adv-x="661" 
d="M601 307q0 -75 -16.5 -131t-46.5 -94.5t-72 -59.5t-92 -27v-43q0 -19 2.5 -30.5t9.5 -17.5t19 -8t31 -2h59q9 0 15.5 -4t6.5 -12v-34q0 -13 -21.5 -18.5t-59.5 -5.5q-37 0 -65 5.5t-47 20.5t-28.5 40.5t-9.5 64.5v45q-50 6 -91.5 27.5t-71.5 59.5t-46.5 93.5t-16.5 130.5
v129q0 83 20.5 142.5t56.5 97.5t85.5 56t108.5 18t108.5 -18t85.5 -56t56 -97.5t20 -142.5v-129zM509 436q0 63 -12.5 107t-35.5 72t-56 40.5t-74 12.5t-74 -12.5t-56.5 -40.5t-36 -72t-12.5 -107v-129q0 -63 12.5 -107t35.5 -72t56.5 -40.5t74.5 -12.5t74 12.5t56 40.5
t35.5 72t12.5 107v129z" />
    <glyph glyph-name="R" unicode="R" horiz-adv-x="625" 
d="M586 13q0 -13 -13 -13h-64q-9 0 -14.5 1.5t-11.5 11.5l-179 298h-26q-25 0 -47.5 0.5t-62.5 2.5v-294q0 -8 -5 -14t-13 -6h-54q-8 0 -13 6t-5 14v700q0 11 5 15.5t19 6.5q16 2 37.5 3.5t45 2.5t47.5 1.5t46 0.5q59 0 110.5 -11t89 -36t59 -66t21.5 -102v-7
q0 -42 -11.5 -75.5t-32.5 -58.5t-50 -42t-63 -26l182 -304q3 -5 3 -9zM468 535q0 75 -48 104t-142 29h-27t-30.5 -0.5t-29.5 -1t-23 -1.5v-274q33 -1 63 -1.5t47 -0.5q46 0 81.5 6.5t59.5 22.5t36.5 42.5t12.5 67.5v7z" />
    <glyph glyph-name="S" unicode="S" horiz-adv-x="550" 
d="M500 193q0 -36 -11 -72t-38.5 -64.5t-75.5 -46t-122 -17.5q-53 0 -93 4.5t-73 9.5q-13 2 -16 6t-3 12v40q0 8 5 12t12 4h3q17 -2 38.5 -3t44 -1.5t44 -1t38.5 -0.5q45 0 74.5 8.5t46.5 24t24 37.5t7 48q0 19 -6 34.5t-20 30.5t-37 31.5t-57 37.5l-97 59
q-69 42 -103.5 84.5t-34.5 102.5q0 91 62 134t177 43q22 0 46.5 -1t48 -2.5t44.5 -4t35 -4.5q17 -3 17 -17v-43q0 -16 -17 -16h-2q-33 2 -80.5 4t-91.5 2q-78 0 -112.5 -20t-34.5 -75q0 -35 26 -61t83 -60l92 -55q43 -26 73 -50t49 -48t27 -50t8 -56z" />
    <glyph glyph-name="T" unicode="T" horiz-adv-x="590" 
d="M555 681q0 -16 -19 -16h-195v-645q0 -8 -5 -14t-13 -6h-55q-8 0 -13 6t-5 14v645h-195q-8 0 -14 4t-6 12v44q0 8 6 13t14 5h481q19 0 19 -18v-44z" />
    <glyph glyph-name="U" unicode="U" horiz-adv-x="662" 
d="M587 270q0 -143 -67.5 -210t-188.5 -67q-122 0 -189 67t-67 210v454q0 8 5.5 13.5t13.5 5.5h54q8 0 13.5 -5.5t5.5 -13.5v-454q0 -48 8 -85.5t27.5 -62.5t50.5 -38t78 -13q46 0 77.5 13t51 38t27.5 62t8 86v454q0 8 5.5 13.5t13.5 5.5h54q8 0 13.5 -5.5t5.5 -13.5v-454z
" />
    <glyph glyph-name="V" unicode="V" horiz-adv-x="643" 
d="M609 726q0 -4 -1 -6l-184 -651q-7 -24 -18.5 -38.5t-25 -23t-29 -11.5t-29.5 -3t-29 3t-29 11.5t-25.5 23t-18.5 38.5l-185 651q-1 2 -1 6q0 8 5 12.5t13 4.5h58q6 0 11 -4.5t7 -10.5l174 -637q6 -21 20 -21q13 0 19 21l175 637q2 6 6.5 10.5t10.5 4.5h59q17 0 17 -17z
" />
    <glyph glyph-name="W" unicode="W" horiz-adv-x="825" 
d="M791 723l-111 -676q-5 -31 -21.5 -41t-40.5 -10h-43q-21 0 -36 13.5t-21 36.5l-98 370q-2 7 -3 8t-3 1h-2q-2 0 -3 -1t-3 -8l-99 -370q-6 -23 -21 -36.5t-36 -13.5h-42q-24 0 -40.5 10t-21.5 41l-111 676v3q0 17 17 17h58q14 0 17 -17l97 -637q2 -8 2 -11.5t3 -3.5
q4 0 7 15l98 370q10 40 47 40h64q37 0 47 -40l98 -370q3 -15 7 -15q3 0 3 3.5t2 11.5l97 637q3 17 17 17h58q17 0 17 -17v-3z" />
    <glyph glyph-name="X" unicode="X" horiz-adv-x="646" 
d="M604 14q0 -5 -4 -9.5t-12 -4.5h-63q-8 0 -12 3.5t-9 11.5l-183 291l-179 -291q-10 -15 -21 -15h-59q-8 0 -12 4.5t-4 10.5q0 5 3 10l222 353l-220 341q-3 4 -3 10q0 14 15 14h65q8 0 11.5 -2.5t6.5 -7.5l180 -285l174 285q5 7 9 8.5t10 1.5h59q8 0 12 -4.5t4 -10.5
q0 -5 -3 -9l-215 -343l225 -351q3 -5 3 -11z" />
    <glyph glyph-name="Y" unicode="Y" horiz-adv-x="583" 
d="M549 729q0 -5 -3 -11l-155 -348q-14 -30 -27 -45t-27 -21v-284q0 -8 -5 -14t-13 -6h-55q-8 0 -13 6t-5 14v284q-14 5 -27 20.5t-27 45.5l-154 348q-3 6 -3 11q0 14 17 14h61q5 0 10.5 -4.5t7.5 -9.5l138 -324q8 -17 13 -21.5t10 -4.5t10 4.5t13 21.5l139 324q2 5 6.5 9.5
t10.5 4.5h61q17 0 17 -14z" />
    <glyph glyph-name="Z" unicode="Z" horiz-adv-x="597" 
d="M544 18q0 -8 -6 -13t-14 -5h-385q-48 0 -65.5 14t-17.5 54q0 13 3.5 30t11.5 28l358 521q3 4 3 8q0 7 -10 7h-332q-8 0 -14 4.5t-6 12.5v47q0 8 6 12.5t14 4.5h356q42 0 63.5 -12.5t21.5 -53.5q0 -14 -4 -31t-12 -28l-357 -521q-3 -5 -3 -9q0 -6 10 -6h359q8 0 14 -4.5
t6 -12.5v-47z" />
    <glyph glyph-name="bracketleft" unicode="[" horiz-adv-x="327" 
d="M303 -174q0 -8 -6 -14t-14 -6h-186q-8 0 -12.5 5.5t-4.5 13.5v899q0 8 4.5 13.5t12.5 5.5h186q8 0 14 -6t6 -14v-33q0 -8 -6 -14t-14 -6h-114v-791h114q8 0 14 -6t6 -14v-33z" />
    <glyph glyph-name="backslash" unicode="\" horiz-adv-x="355" 
d="M333 14q0 -5 -3.5 -9.5t-10.5 -4.5h-51q-8 0 -12 6t-6 14l-226 703q-1 2 -1 6q0 5 3.5 9.5t10.5 4.5h51q8 0 11.5 -6t5.5 -14l227 -703q1 -2 1 -6z" />
    <glyph glyph-name="bracketright" unicode="]" horiz-adv-x="327" 
d="M247 -175q0 -8 -4.5 -13.5t-12.5 -5.5h-186q-8 0 -14 6t-6 14v33q0 8 6 14t14 6h114v791h-114q-8 0 -14 6t-6 14v33q0 8 6 14t14 6h186q8 0 12.5 -5.5t4.5 -13.5v-899z" />
    <glyph glyph-name="asciicircum" unicode="^" 
d="M505 572q0 -9 -11 -9h-60q-11 0 -15.5 4.5t-12.5 13.5l-103 120l-103 -120q-8 -9 -12.5 -13.5t-15.5 -4.5h-60q-11 0 -11 9q0 6 4 11l115 149q8 11 13.5 14.5t16.5 3.5h106q11 0 16.5 -3.5t13.5 -14.5l115 -149q4 -5 4 -11z" />
    <glyph glyph-name="underscore" unicode="_" horiz-adv-x="494" 
d="M525 -90q0 -8 -6 -12t-14 -4h-515q-8 0 -14 4t-6 12v25q0 8 6 12t14 4h515q8 0 14 -4t6 -12v-25z" />
    <glyph glyph-name="grave" unicode="`" horiz-adv-x="372" 
d="M243 630q0 -7 -9 -7h-54q-8 0 -12 3.5t-11 11.5l-113 126q-4 4 -4 8q0 7 11 7h66q9 0 13.5 -3.5t11.5 -11.5l97 -124q4 -4 4 -10z" />
    <glyph glyph-name="a" unicode="a" horiz-adv-x="519" 
d="M451 20q0 -8 -6 -14t-14 -6h-46q-8 0 -14 6t-6 14v22q-36 -21 -74 -35t-80 -14q-32 0 -61.5 7.5t-52 26.5t-36 50t-13.5 78v12q0 40 12.5 70.5t41 51t74.5 30.5t113 10h74v40q0 63 -24 88t-83 25q-49 0 -86 -2.5t-67 -5.5h-5q-7 0 -12.5 3t-5.5 13v35q0 16 21 19
q31 5 67.5 9t87.5 4q104 0 149.5 -50t45.5 -138v-349zM363 266h-74q-45 0 -75 -5.5t-47 -17t-24 -30t-7 -45.5v-12q0 -54 24 -72.5t68 -18.5q35 0 67 10t68 30v161z" />
    <glyph glyph-name="b" unicode="b" horiz-adv-x="541" 
d="M491 240q0 -56 -13 -102t-40 -78t-68 -49.5t-97 -17.5q-45 0 -91 4t-93 13q-14 2 -17.5 7t-3.5 16v700q0 8 5 13.5t13 5.5h51q8 0 13.5 -5.5t5.5 -13.5v-186q29 5 61 7.5t56 2.5q109 0 163.5 -63.5t54.5 -181.5v-72zM403 312q0 80 -28.5 124t-101.5 44q-12 0 -27 -0.5
t-31 -1t-31.5 -2t-27.5 -3.5v-397q26 -2 58.5 -4t58.5 -2q74 0 102 44t28 126v72z" />
    <glyph glyph-name="c" unicode="c" horiz-adv-x="452" 
d="M408 26q0 -10 -4 -15t-16 -7q-25 -5 -57.5 -8t-67.5 -3q-51 0 -90.5 17.5t-67 49t-41.5 76.5t-14 100v78q0 55 14 100t41 76.5t67 49t91 17.5q35 0 67.5 -3t57.5 -8q12 -2 16 -6.5t4 -15.5v-36q0 -8 -5 -11.5t-12 -3.5h-4q-33 4 -60 5.5t-64 1.5q-60 0 -92.5 -40.5
t-32.5 -125.5v-78q0 -85 32 -125.5t93 -40.5q37 0 64 1.5t60 5.5h4q7 0 12 -3.5t5 -11.5v-36z" />
    <glyph glyph-name="d" unicode="d" horiz-adv-x="541" 
d="M473 33q0 -10 -3.5 -15.5t-17.5 -7.5q-47 -9 -92.5 -13t-91.5 -4q-56 0 -97 17.5t-68 49.5t-40 78t-13 102v72q0 118 54 181.5t164 63.5q23 0 55.5 -2.5t61.5 -7.5v186q0 8 5.5 13.5t13.5 5.5h51q8 0 13 -5.5t5 -13.5v-700zM385 473q-25 5 -59 6t-58 1q-37 0 -62 -11
t-40 -32.5t-21.5 -53t-6.5 -71.5v-72q0 -82 28 -126t102 -44q26 0 58.5 2t58.5 4v397z" />
    <glyph glyph-name="e" unicode="e" horiz-adv-x="544" 
d="M492 269q0 -22 -19 -22h-335v-14q0 -89 35 -126t104 -37q44 0 93.5 3t84.5 8h5q6 0 11 -3t5 -11v-34q0 -10 -4 -15.5t-16 -7.5q-43 -8 -85.5 -12.5t-93.5 -4.5q-43 0 -84 11.5t-72.5 39t-51 73.5t-19.5 116v90q0 108 57 171t165 63q55 0 96 -16.5t68.5 -47t41.5 -74
t14 -96.5v-54zM403 323q0 85 -32.5 121t-98.5 36q-65 0 -99.5 -38t-34.5 -119v-9h265v9z" />
    <glyph glyph-name="f" unicode="f" horiz-adv-x="381" 
d="M356 706q0 -15 -18 -15h-48q-35 0 -48 -14t-13 -55v-72h105q8 0 13.5 -5t5.5 -13v-39q0 -17 -19 -17h-105v-456q0 -8 -5.5 -14t-13.5 -6h-49q-8 0 -14 6t-6 14v456l-97 11q-19 2 -19 18v27q0 8 5.5 13t13.5 5h97v72q0 40 9.5 67t27.5 43t44 22.5t59 6.5q20 0 33 -2t23 -4
q19 -5 19 -16v-33z" />
    <glyph glyph-name="g" unicode="g" horiz-adv-x="559" 
d="M523 502q0 -10 -5 -13.5t-13 -5.5l-36 -7q14 -14 24 -38t10 -65v-8q0 -83 -53 -127t-169 -44q-40 0 -67 5.5t-49 14.5q-25 -12 -25 -34q0 -13 7 -20t24 -12l149 -38q37 -9 71.5 -20t61.5 -27.5t43 -40.5t16 -59v-8q0 -72 -52.5 -113.5t-175.5 -41.5q-119 0 -174.5 42.5
t-55.5 116.5v9q0 42 19 75t44 52l-7 3q-24 11 -35 33t-11 45v1q0 20 10 40t31 32q-23 22 -34.5 50t-11.5 66v8q0 33 10.5 65t36 57t68 40t107.5 15h219q9 0 16 -6.5t7 -15.5v-26zM416 373q0 22 -6 42t-21 34t-41.5 22.5t-66.5 8.5q-42 0 -68.5 -9t-41 -23.5t-20 -34
t-5.5 -40.5v-8q0 -17 5 -35t19.5 -33t41 -24.5t69.5 -9.5q40 0 66.5 7.5t41.5 21t21 32t6 41.5v8zM424 -37q0 29 -27.5 45t-94.5 33l-113 29q-22 -19 -35.5 -41t-13.5 -61v-9q0 -21 7 -38t23.5 -28.5t44 -18t69.5 -6.5q43 0 70 6t42.5 17t21.5 27t6 37v8z" />
    <glyph glyph-name="h" unicode="h" horiz-adv-x="557" 
d="M489 20q0 -8 -6 -14t-14 -6h-48q-8 0 -14 6t-6 14v329q0 75 -29 103t-78 28q-12 0 -28.5 -1.5t-35.5 -5t-38.5 -9t-35.5 -12.5v-432q0 -8 -6 -14t-14 -6h-49q-8 0 -13.5 6t-5.5 14v712q0 8 5.5 14t13.5 6h50q8 0 13.5 -6t5.5 -14v-206q36 16 78.5 23.5t74.5 7.5
q40 0 73 -12t57 -37t37 -64.5t13 -94.5v-329z" />
    <glyph glyph-name="i" unicode="i" horiz-adv-x="247" 
d="M169 658q0 -8 -6 -14t-14 -6h-51q-8 0 -14 6t-6 14v80q0 8 6 14t14 6h51q8 0 14 -6t6 -14v-80zM167 20q0 -8 -6 -14t-14 -6h-48q-8 0 -14 6t-6 14v510q0 8 6 14t14 6h48q8 0 14 -6t6 -14v-510z" />
    <glyph glyph-name="j" unicode="j" horiz-adv-x="247" 
d="M169 657q0 -8 -6 -13.5t-14 -5.5h-51q-8 0 -14 5.5t-6 13.5v81q0 8 6 14t14 6h51q8 0 14 -6t6 -14v-81zM167 -64q0 -39 -8.5 -64.5t-24 -41t-39 -21.5t-53.5 -6q-15 0 -27 1t-27 3q-18 3 -18 16v37q0 14 21 14h41q29 0 38 12t9 50v594q0 8 5 14t13 6h52q8 0 13 -6t5 -14
v-594z" />
    <glyph glyph-name="k" unicode="k" horiz-adv-x="496" 
d="M461 13q0 -13 -11 -13h-72q-8 0 -12.5 2.5t-10.5 10.5l-199 246v-239q0 -8 -6 -14t-14 -6h-48q-8 0 -14 6t-6 14v712q0 8 6 14t14 6h48q8 0 14 -6t6 -14v-416l200 225q5 5 8.5 7t11.5 2h70q15 0 15 -11q0 -6 -5 -11l-220 -238l222 -268q3 -3 3 -9z" />
    <glyph glyph-name="l" unicode="l" horiz-adv-x="244" 
d="M166 20q0 -8 -5 -14t-13 -6h-52q-8 0 -13 6t-5 14v713q0 8 5 13.5t13 5.5h52q8 0 13 -5.5t5 -13.5v-713z" />
    <glyph glyph-name="m" unicode="m" horiz-adv-x="798" 
d="M730 20q0 -8 -6 -14t-14 -6h-48q-8 0 -14 6t-6 14v354q0 31 -7 52t-19 33t-29 17t-36 5q-27 0 -57.5 -8t-59.5 -19q9 -33 9 -78v-356q0 -8 -5 -14t-13 -6h-53q-8 0 -12.5 6t-4.5 14v356q0 33 -4.5 53.5t-14.5 32t-24.5 15.5t-33.5 4q-27 0 -58.5 -11.5t-63.5 -27.5v-422
q0 -8 -5 -14t-13 -6h-53q-8 0 -12.5 6t-4.5 14v510q0 8 5.5 14t13.5 6h50q8 0 13.5 -6t5.5 -14v-19q30 19 67 33t79 14q32 0 56.5 -9.5t43.5 -31.5q42 20 84.5 30.5t81.5 10.5q34 0 63.5 -9t51.5 -30.5t34.5 -57t12.5 -87.5v-354z" />
    <glyph glyph-name="n" unicode="n" horiz-adv-x="557" 
d="M489 20q0 -8 -6 -14t-14 -6h-48q-8 0 -14 6t-6 14v329q0 38 -6.5 63.5t-20 40.5t-34.5 21.5t-49 6.5q-32 0 -66 -11t-69 -28v-422q0 -8 -6 -14t-14 -6h-49q-8 0 -13.5 6t-5.5 14v510q0 8 5.5 14t13.5 6h50q8 0 13.5 -6t5.5 -14v-19q42 23 78 34.5t81 11.5q91 0 132.5 -54
t41.5 -154v-329z" />
    <glyph glyph-name="o" unicode="o" horiz-adv-x="545" 
d="M495 237q0 -55 -14 -100t-42 -77t-70 -49.5t-97 -17.5t-96.5 17.5t-69.5 49.5t-42 77t-14 100v76q0 55 14 100t42 77t69.5 49.5t96.5 17.5t97 -17.5t70 -49.5t42 -77t14 -100v-76zM407 313q0 77 -32 122t-103 45q-70 0 -102 -44.5t-32 -122.5v-76q0 -77 31.5 -122
t102.5 -45q70 0 102.5 44.5t32.5 122.5v76z" />
    <glyph glyph-name="p" unicode="p" horiz-adv-x="541" 
d="M491 238q0 -118 -54 -181.5t-164 -63.5q-23 0 -55.5 3t-61.5 8v-181q0 -8 -5.5 -13.5t-13.5 -5.5h-51q-8 0 -13 5.5t-5 13.5v688q0 10 3.5 15t17.5 8q40 10 89 16.5t95 6.5q56 0 97 -17.5t68 -50t40 -78t13 -101.5v-72zM403 310q0 39 -6.5 71t-21.5 54.5t-40 35t-62 12.5
q-32 0 -64 -3t-53 -7v-396q25 -5 59 -7.5t58 -2.5q37 0 62 11.5t40 33.5t21.5 54t6.5 72v72z" />
    <glyph glyph-name="q" unicode="q" horiz-adv-x="541" 
d="M473 -177q0 -8 -5 -13.5t-13 -5.5h-51q-8 0 -13.5 5.5t-5.5 13.5v181q-29 -5 -61 -8t-56 -3q-109 0 -163.5 63.5t-54.5 181.5v72q0 56 13 101.5t40 78t68 50t97 17.5q45 0 94.5 -6.5t89.5 -16.5q14 -3 17.5 -7.5t3.5 -15.5v-688zM385 473q-20 4 -52.5 7t-64.5 3
q-37 0 -62 -12t-40 -34.5t-21.5 -54.5t-6.5 -72v-72q0 -40 6.5 -72t21.5 -54t40 -33.5t62 -11.5q12 0 27 0.5t31 2t31.5 3.5t27.5 4v396z" />
    <glyph glyph-name="r" unicode="r" horiz-adv-x="342" 
d="M315 498q0 -17 -21 -17q-35 0 -67.5 -9.5t-70.5 -32.5v-419q0 -8 -6 -14t-14 -6h-49q-8 0 -13.5 6t-5.5 14v510q0 8 5.5 14t13.5 6h47q8 0 13.5 -6t5.5 -14v-21q38 26 72.5 37t68.5 11q21 0 21 -18v-41z" />
    <glyph glyph-name="s" unicode="s" horiz-adv-x="466" 
d="M416 138q0 -38 -13.5 -65.5t-38 -45t-59 -26t-76.5 -8.5q-14 0 -33.5 0.5t-41 2.5t-43.5 4.5t-40 7.5q-21 5 -21 20v35q0 7 5 11t13 4h4q18 -2 39.5 -4t43.5 -3.5t41 -2.5t33 -1q49 0 74 15t25 56q0 23 -16 40t-59 43l-101 60q-46 28 -74 61.5t-28 81.5q0 39 14 64.5
t38 41t57 21.5t72 6q42 0 81.5 -3.5t74.5 -9.5q19 -3 19 -20v-33q0 -17 -17 -17h-3q-26 2 -69.5 5t-85.5 3t-67.5 -10t-25.5 -48q0 -23 17 -39.5t52 -36.5l99 -59q62 -37 86 -72t24 -79z" />
    <glyph glyph-name="t" unicode="t" horiz-adv-x="385" 
d="M360 15q0 -14 -18 -17q-15 -2 -33 -3.5t-32 -1.5q-35 0 -60.5 5.5t-42 20.5t-25 41t-8.5 67v349l-97 11q-19 2 -19 18v27q0 18 19 18h97v98q0 17 18 20l52 8h3q6 0 10.5 -4.5t4.5 -12.5v-109h108q8 0 14 -6t6 -14v-34q0 -8 -6 -14t-14 -6h-108v-349q0 -41 12 -52t42 -11
h56q21 0 21 -14v-35z" />
    <glyph glyph-name="u" unicode="u" horiz-adv-x="557" 
d="M489 20q0 -8 -5.5 -14t-13.5 -6h-50q-8 0 -13.5 6t-5.5 14v19q-42 -23 -78 -34.5t-81 -11.5q-91 0 -132.5 54t-41.5 154v329q0 8 6 14t14 6h48q8 0 14 -6t6 -14v-329q0 -38 6.5 -63.5t20 -40.5t34 -21.5t49.5 -6.5q32 0 66 11t69 28v422q0 8 6 14t14 6h49q8 0 13.5 -6
t5.5 -14v-510z" />
    <glyph glyph-name="v" unicode="v" horiz-adv-x="530" 
d="M491 533q0 -4 -1 -7l-135 -476q-10 -34 -34 -45.5t-56 -11.5t-56 11.5t-34 45.5l-135 476q-1 3 -1 7q0 17 16 17h55q13 0 19 -19l115 -436q5 -18 9 -23.5t12 -5.5q7 0 11.5 5.5t9.5 23.5l115 436q6 19 19 19h55q16 0 16 -17z" />
    <glyph glyph-name="w" unicode="w" horiz-adv-x="786" 
d="M748 526l-97 -464q-5 -24 -10 -37.5t-14 -20.5t-23.5 -9t-36.5 -2q-20 0 -33 2.5t-22 10t-15 21.5t-12 38l-87 340q-2 5 -2.5 6t-2.5 1t-2.5 -1t-2.5 -6l-87 -340q-6 -22 -12 -36t-15 -22t-22.5 -11t-32.5 -3q-23 0 -37 2t-23 9t-14 21t-10 37l-97 464v4q0 8 5.5 14
t13.5 6h54q7 0 11.5 -5t5.5 -11l83 -456q2 -9 4 -10.5t4 -1.5q5 0 8 12l98 384q5 17 14.5 23.5t25.5 6.5h56q16 0 25.5 -6.5t14.5 -23.5l98 -384q3 -12 8 -12q2 0 4 1.5t4 10.5l83 456q1 6 5.5 11t11.5 5h54q8 0 13.5 -6t5.5 -14v-4z" />
    <glyph glyph-name="x" unicode="x" horiz-adv-x="547" 
d="M511 11q0 -11 -13 -11h-69q-9 0 -14 8l-143 209l-143 -207q-5 -7 -7.5 -8.5t-9.5 -1.5h-60q-12 0 -12 10q0 7 5 13l180 257l-170 245q-5 8 -5 13q0 12 15 12h65q6 0 10.5 -3t9.5 -11l127 -188l128 188q7 10 10.5 12t10.5 2h58q13 0 13 -12q0 -5 -5 -13l-168 -239
l183 -263q4 -5 4 -12z" />
    <glyph glyph-name="y" unicode="y" horiz-adv-x="534" 
d="M495 533q0 -5 -1 -7l-165 -576q-12 -41 -25.5 -69t-34.5 -45.5t-50.5 -25.5t-72.5 -8q-21 0 -44.5 2.5t-39.5 6.5q-9 2 -15 5t-6 11v37q0 16 19 16h3q17 -2 44.5 -4t44.5 -2q21 0 37 3.5t27.5 13t20 26t14.5 42.5l10 41h-14q-11 0 -21.5 2t-20 9t-17.5 21t-15 37
l-133 457q-1 2 -1 7q0 17 18 17h55q6 0 10.5 -5t6.5 -11l118 -434q4 -15 9 -18.5t10 -3.5h16l122 457q2 6 7 10.5t12 4.5h56q16 0 16 -17z" />
    <glyph glyph-name="z" unicode="z" horiz-adv-x="482" 
d="M432 20q0 -8 -6 -14t-14 -6h-302q-32 0 -46.5 17t-14.5 38v19q0 21 5 34.5t18 30.5l258 321q4 6 4 9q0 7 -10 7h-243q-8 0 -14 6t-6 14v34q0 8 6 14t14 6h294q31 0 43.5 -13t12.5 -36v-24q0 -16 -5.5 -28.5t-17.5 -26.5l-263 -329q-5 -5 -5 -11q0 -8 8 -8h264q8 0 14 -6
t6 -14v-34z" />
    <glyph glyph-name="braceleft" unicode="{" horiz-adv-x="331" 
d="M304 -174q0 -8 -6 -14t-14 -6h-51q-46 0 -75.5 6.5t-47 22.5t-24 42.5t-6.5 66.5v176q0 23 -3 41t-9.5 32.5t-18 27t-29.5 24.5v58q18 12 29.5 24.5t18 26.5t9.5 32t3 41v178q0 40 6.5 66.5t24 42.5t47 22.5t75.5 6.5h50q8 0 14 -6t6 -14v-33q0 -8 -6 -14t-14 -6h-45
q-22 0 -35.5 -2.5t-21 -10t-10 -20t-2.5 -32.5v-178q0 -53 -15 -89.5t-56 -64.5q40 -28 55.5 -64t15.5 -89v-176q0 -20 2.5 -32.5t10 -20t21 -10t35.5 -2.5h46q8 0 14 -6t6 -14v-33z" />
    <glyph glyph-name="bar" unicode="|" horiz-adv-x="249" 
d="M169 -175q0 -8 -5 -13.5t-13 -5.5h-52q-8 0 -13.5 5.5t-5.5 13.5v899q0 8 5.5 13.5t13.5 5.5h52q8 0 13 -5.5t5 -13.5v-899z" />
    <glyph glyph-name="braceright" unicode="}" horiz-adv-x="331" 
d="M311 245q-18 -12 -29.5 -24.5t-18 -27t-9.5 -32.5t-3 -41v-176q0 -40 -7 -66.5t-24 -42.5t-46.5 -22.5t-75.5 -6.5h-51q-8 0 -14 6t-6 14v33q0 8 6 14t14 6h46q22 0 35.5 2.5t21 10t10 20t2.5 32.5v176q0 53 15.5 89t55.5 64q-41 28 -56 64.5t-15 89.5v178
q0 20 -2.5 32.5t-10 20t-21 10t-35.5 2.5h-45q-8 0 -14 6t-6 14v33q0 8 6 14t14 6h50q46 0 75.5 -6.5t46.5 -22.5t24 -42.5t7 -66.5v-178q0 -23 3 -41t9.5 -32t18 -26.5t29.5 -24.5v-58z" />
    <glyph glyph-name="asciitilde" unicode="~" 
d="M514 467q0 -63 -24.5 -95.5t-84.5 -32.5q-20 0 -39.5 7.5t-36.5 20.5l-73 58q-22 17 -32 24t-21 7q-29 0 -35.5 -16t-6.5 -43v-26q0 -8 -6 -14t-14 -6h-29q-8 0 -14 6t-6 14v26q0 65 28.5 97.5t82.5 32.5q20 0 39.5 -7.5t35.5 -20.5l85 -68q9 -8 21.5 -14t20.5 -6
q28 0 34 13t6 43v28q0 8 6 14t14 6h29q8 0 14 -6t6 -14v-28z" />
    <glyph glyph-name="Adieresis" unicode="&#xc4;" horiz-adv-x="633" 
d="M604 16q0 -16 -17 -16h-59q-7 0 -11 4.5t-6 10.5l-65 230h-259l-64 -230q-2 -6 -7 -10.5t-11 -4.5h-59q-17 0 -17 16q0 5 1 7l185 651q6 23 17.5 37.5t25.5 23t29.5 12t29.5 3.5t29 -3t29 -11.5t25.5 -23t17.5 -37.5l185 -652q1 -2 1 -7zM336 653q-5 18 -19 18
q-15 0 -20 -18l-91 -329h221zM450 827q0 -8 -6 -13.5t-14 -5.5h-39q-8 0 -14 5.5t-6 13.5v81q0 8 6 14t14 6h39q8 0 14 -6t6 -14v-81zM275 827q0 -8 -6 -13.5t-14 -5.5h-39q-8 0 -14 5.5t-6 13.5v81q0 8 6 14t14 6h39q8 0 14 -6t6 -14v-81z" />
    <glyph glyph-name="Aring" unicode="&#xc5;" horiz-adv-x="633" 
d="M604 16q0 -16 -17 -16h-59q-7 0 -11 4.5t-6 10.5l-65 230h-259l-64 -230q-2 -6 -7 -10.5t-11 -4.5h-59q-17 0 -17 16q0 5 1 7l185 651q6 23 17.5 37.5t25.5 23t29.5 12t29.5 3.5t29 -3t29 -11.5t25.5 -23t17.5 -37.5l185 -652q1 -2 1 -7zM336 653q-5 18 -19 18
q-15 0 -20 -18l-91 -329h221zM417 878q0 -21 -8 -39.5t-21.5 -32t-32 -21.5t-39.5 -8t-39.5 8t-32.5 21.5t-22 32t-8 39.5t8 39.5t22 32.5t32.5 22t39.5 8t39.5 -8t32 -22t21.5 -32.5t8 -39.5zM369 879q0 22 -15.5 37t-37.5 15t-37 -15t-15 -37t15 -37.5t37 -15.5t37.5 15.5
t15.5 37.5z" />
    <glyph glyph-name="Ccedilla" unicode="&#xc7;" horiz-adv-x="545" 
d="M510 26q0 -9 -6 -13.5t-14 -6.5q-16 -3 -32 -5.5t-35 -4t-43 -2.5t-56 -1q-46 0 -93 14t-85 49.5t-62 95t-24 150.5v139q0 92 24 151.5t62 94.5t85 49t93 14q48 0 91.5 -5.5t76.5 -10.5q16 -2 16 -13v-51q0 -5 -2 -8t-10 -3h-3q-14 1 -33.5 2.5t-42 3t-46.5 2.5t-46 1
q-37 0 -68.5 -11.5t-55 -38t-37 -70t-13.5 -107.5v-139q0 -63 13.5 -106.5t37 -70t55 -38.5t68.5 -12q21 0 44.5 1t46 2t41.5 2.5t33 2.5h4q16 0 16 -16v-41zM381 -39q0 -4 -4 -8l-113 -126q-7 -8 -11 -11.5t-12 -3.5h-54q-9 0 -9 7q0 4 4 10l97 124q7 8 12 11.5t13 3.5h66
q11 0 11 -7z" />
    <glyph glyph-name="Eacute" unicode="&#xc9;" horiz-adv-x="551" 
d="M496 12q0 -5 -2.5 -9t-7.5 -5q-14 -2 -38 -2.5t-51.5 -1.5t-55.5 -1h-50q-106 0 -159.5 43t-53.5 143v385q0 100 53.5 143t159.5 43q22 0 49.5 -0.5t54.5 -1t51 -2l40 -2.5q5 -1 7.5 -5t2.5 -9v-50q0 -12 -11 -12h-193q-40 0 -64 -5.5t-37 -18t-17.5 -32.5t-4.5 -48v-139
h307q8 0 14 -6t6 -14v-38q0 -8 -6 -14t-14 -6h-307v-168q0 -29 4.5 -48.5t17.5 -32t37 -18t64 -5.5h193q11 0 11 -12v-51zM436 943q0 -4 -4 -8l-113 -126q-7 -8 -11 -11.5t-12 -3.5h-54q-9 0 -9 7q0 6 4 10l98 124q7 8 11 11.5t13 3.5h66q11 0 11 -7z" />
    <glyph glyph-name="Ntilde" unicode="&#xd1;" horiz-adv-x="680" 
d="M602 29q0 -12 -8.5 -20.5t-20.5 -8.5h-62q-24 0 -32 16l-309 587q-2 3 -3 3t-1 -3v-584q0 -8 -5 -13.5t-13 -5.5h-52q-8 0 -13 2t-5 10v703q0 12 8.5 20t20.5 8h55q21 0 28 -4.5t13 -15.5l307 -584l2 -3q1 0 1 3v585q0 8 5 13.5t13 5.5h53q8 0 13 -5.5t5 -13.5v-695z
M508 892q0 -52 -21.5 -78.5t-72.5 -26.5q-17 0 -33.5 5t-30.5 16l-61 49q-18 14 -25 18t-16 4q-18 0 -24.5 -11.5t-6.5 -34.5v-21q0 -7 -5 -12t-12 -5h-31q-7 0 -11.5 5t-4.5 12v21q0 54 25 81.5t70 27.5q17 0 31.5 -6.5t28.5 -17.5l71 -56q8 -6 18 -10t17 -4q15 0 22.5 9
t7.5 35v23q0 7 5 12t12 5h31q7 0 11.5 -5t4.5 -12v-23z" />
    <glyph glyph-name="Odieresis" unicode="&#xd6;" horiz-adv-x="661" 
d="M601 307q0 -83 -20 -142.5t-56 -97.5t-85.5 -56t-108.5 -18t-108.5 18t-85.5 56t-56.5 97.5t-20.5 142.5v129q0 83 20.5 142.5t56.5 97.5t85.5 56t108.5 18t108.5 -18t85.5 -56t56 -97.5t20 -142.5v-129zM509 436q0 63 -12.5 107t-35.5 72t-56 40.5t-74 12.5t-74 -12.5
t-56.5 -40.5t-36 -72t-12.5 -107v-129q0 -63 12.5 -107t35.5 -72t56.5 -40.5t74.5 -12.5t74 12.5t56 40.5t35.5 72t12.5 107v129zM458 829q0 -8 -6 -13.5t-14 -5.5h-39q-8 0 -14 5.5t-6 13.5v81q0 8 6 14t14 6h39q8 0 14 -6t6 -14v-81zM283 829q0 -8 -6 -13.5t-14 -5.5h-39
q-8 0 -14 5.5t-6 13.5v81q0 8 6 14t14 6h39q8 0 14 -6t6 -14v-81z" />
    <glyph glyph-name="Udieresis" unicode="&#xdc;" horiz-adv-x="662" 
d="M587 270q0 -143 -67.5 -210t-188.5 -67q-122 0 -189 67t-67 210v454q0 8 5.5 13.5t13.5 5.5h54q8 0 13.5 -5.5t5.5 -13.5v-454q0 -48 8 -85.5t27.5 -62.5t50.5 -38t78 -13q46 0 77.5 13t51 38t27.5 62t8 86v454q0 8 5.5 13.5t13.5 5.5h54q8 0 13.5 -5.5t5.5 -13.5v-454z
M456 829q0 -8 -6 -13.5t-14 -5.5h-39q-8 0 -14 5.5t-6 13.5v81q0 8 6 14t14 6h39q8 0 14 -6t6 -14v-81zM281 829q0 -8 -6 -13.5t-14 -5.5h-39q-8 0 -14 5.5t-6 13.5v81q0 8 6 14t14 6h39q8 0 14 -6t6 -14v-81z" />
    <glyph glyph-name="aacute" unicode="&#xe1;" horiz-adv-x="519" 
d="M451 20q0 -8 -6 -14t-14 -6h-46q-8 0 -14 6t-6 14v22q-36 -21 -74 -35t-80 -14q-32 0 -61.5 7.5t-52 26.5t-36 50t-13.5 78v12q0 40 12.5 70.5t41 51t74.5 30.5t113 10h74v40q0 63 -24 88t-83 25q-49 0 -86 -2.5t-67 -5.5h-5q-7 0 -12.5 3t-5.5 13v35q0 16 21 19
q31 5 67.5 9t87.5 4q104 0 149.5 -50t45.5 -138v-349zM363 266h-74q-45 0 -75 -5.5t-47 -17t-24 -30t-7 -45.5v-12q0 -54 24 -72.5t68 -18.5q35 0 67 10t68 30v161zM412 772q0 -4 -4 -8l-113 -126q-7 -8 -11 -11.5t-12 -3.5h-54q-9 0 -9 7q0 6 4 10l98 124q7 8 11 11.5
t13 3.5h66q11 0 11 -7z" />
    <glyph glyph-name="agrave" unicode="&#xe0;" horiz-adv-x="519" 
d="M451 20q0 -8 -6 -14t-14 -6h-46q-8 0 -14 6t-6 14v22q-36 -21 -74 -35t-80 -14q-32 0 -61.5 7.5t-52 26.5t-36 50t-13.5 78v12q0 40 12.5 70.5t41 51t74.5 30.5t113 10h74v40q0 63 -24 88t-83 25q-49 0 -86 -2.5t-67 -5.5h-5q-7 0 -12.5 3t-5.5 13v35q0 16 21 19
q31 5 67.5 9t87.5 4q104 0 149.5 -50t45.5 -138v-349zM363 266h-74q-45 0 -75 -5.5t-47 -17t-24 -30t-7 -45.5v-12q0 -54 24 -72.5t68 -18.5q35 0 67 10t68 30v161zM324 630q0 -7 -9 -7h-54q-8 0 -12 3.5t-11 11.5l-113 126q-4 4 -4 8q0 7 11 7h66q9 0 13.5 -3.5t11.5 -11.5
l97 -124q4 -4 4 -10z" />
    <glyph glyph-name="acircumflex" unicode="&#xe2;" horiz-adv-x="519" 
d="M451 20q0 -8 -6 -14t-14 -6h-46q-8 0 -14 6t-6 14v22q-36 -21 -74 -35t-80 -14q-32 0 -61.5 7.5t-52 26.5t-36 50t-13.5 78v12q0 40 12.5 70.5t41 51t74.5 30.5t113 10h74v40q0 63 -24 88t-83 25q-49 0 -86 -2.5t-67 -5.5h-5q-7 0 -12.5 3t-5.5 13v35q0 16 21 19
q31 5 67.5 9t87.5 4q104 0 149.5 -50t45.5 -138v-349zM363 266h-74q-45 0 -75 -5.5t-47 -17t-24 -30t-7 -45.5v-12q0 -54 24 -72.5t68 -18.5q35 0 67 10t68 30v161zM425 630q0 -7 -9 -7h-52q-8 0 -12 3.5t-11 11.5l-82 97l-83 -97q-7 -8 -11 -11.5t-12 -3.5h-52q-9 0 -9 7
q0 6 4 10l96 124q7 8 11 11.5t13 3.5h85q9 0 13.5 -3.5t11.5 -11.5l95 -124q4 -4 4 -10z" />
    <glyph glyph-name="adieresis" unicode="&#xe4;" horiz-adv-x="519" 
d="M451 20q0 -8 -6 -14t-14 -6h-46q-8 0 -14 6t-6 14v22q-36 -21 -74 -35t-80 -14q-32 0 -61.5 7.5t-52 26.5t-36 50t-13.5 78v12q0 40 12.5 70.5t41 51t74.5 30.5t113 10h74v40q0 63 -24 88t-83 25q-49 0 -86 -2.5t-67 -5.5h-5q-7 0 -12.5 3t-5.5 13v35q0 16 21 19
q31 5 67.5 9t87.5 4q104 0 149.5 -50t45.5 -138v-349zM363 266h-74q-45 0 -75 -5.5t-47 -17t-24 -30t-7 -45.5v-12q0 -54 24 -72.5t68 -18.5q35 0 67 10t68 30v161zM388 660q0 -8 -6 -13.5t-14 -5.5h-39q-8 0 -14 5.5t-6 13.5v81q0 8 6 14t14 6h39q8 0 14 -6t6 -14v-81z
M213 660q0 -8 -6 -13.5t-14 -5.5h-39q-8 0 -14 5.5t-6 13.5v81q0 8 6 14t14 6h39q8 0 14 -6t6 -14v-81z" />
    <glyph glyph-name="atilde" unicode="&#xe3;" horiz-adv-x="519" 
d="M451 20q0 -8 -6 -14t-14 -6h-46q-8 0 -14 6t-6 14v22q-36 -21 -74 -35t-80 -14q-32 0 -61.5 7.5t-52 26.5t-36 50t-13.5 78v12q0 40 12.5 70.5t41 51t74.5 30.5t113 10h74v40q0 63 -24 88t-83 25q-49 0 -86 -2.5t-67 -5.5h-5q-7 0 -12.5 3t-5.5 13v35q0 16 21 19
q31 5 67.5 9t87.5 4q104 0 149.5 -50t45.5 -138v-349zM363 266h-74q-45 0 -75 -5.5t-47 -17t-24 -30t-7 -45.5v-12q0 -54 24 -72.5t68 -18.5q35 0 67 10t68 30v161zM446 731q0 -52 -21.5 -78.5t-72.5 -26.5q-17 0 -33.5 5t-30.5 16l-61 49q-18 14 -25 18t-16 4
q-18 0 -24.5 -11.5t-6.5 -34.5v-21q0 -7 -5 -12t-12 -5h-31q-7 0 -11.5 5t-4.5 12v21q0 54 25 81.5t70 27.5q17 0 31.5 -6.5t28.5 -17.5l71 -56q8 -6 18 -10t17 -4q15 0 22.5 9t7.5 35v23q0 7 5 12t12 5h31q7 0 11.5 -5t4.5 -12v-23z" />
    <glyph glyph-name="aring" unicode="&#xe5;" horiz-adv-x="519" 
d="M451 20q0 -8 -6 -14t-14 -6h-46q-8 0 -14 6t-6 14v22q-36 -21 -74 -35t-80 -14q-32 0 -61.5 7.5t-52 26.5t-36 50t-13.5 78v12q0 40 12.5 70.5t41 51t74.5 30.5t113 10h74v40q0 63 -24 88t-83 25q-49 0 -86 -2.5t-67 -5.5h-5q-7 0 -12.5 3t-5.5 13v35q0 16 21 19
q31 5 67.5 9t87.5 4q104 0 149.5 -50t45.5 -138v-349zM363 266h-74q-45 0 -75 -5.5t-47 -17t-24 -30t-7 -45.5v-12q0 -54 24 -72.5t68 -18.5q35 0 67 10t68 30v161zM358 703q0 -21 -8 -39.5t-21.5 -32t-32 -21.5t-39.5 -8t-39.5 8t-32.5 21.5t-22 32t-8 39.5t8 39.5t22 32.5
t32.5 22t39.5 8t39.5 -8t32 -22t21.5 -32.5t8 -39.5zM310 704q0 22 -15.5 37t-37.5 15t-37 -15t-15 -37t15 -37.5t37 -15.5t37.5 15.5t15.5 37.5z" />
    <glyph glyph-name="ccedilla" unicode="&#xe7;" horiz-adv-x="452" 
d="M408 26q0 -10 -4 -15t-16 -7q-25 -5 -57.5 -8t-67.5 -3q-51 0 -90.5 17.5t-67 49t-41.5 76.5t-14 100v78q0 55 14 100t41 76.5t67 49t91 17.5q35 0 67.5 -3t57.5 -8q12 -2 16 -6.5t4 -15.5v-36q0 -8 -5 -11.5t-12 -3.5h-4q-33 4 -60 5.5t-64 1.5q-60 0 -92.5 -40.5
t-32.5 -125.5v-78q0 -85 32 -125.5t93 -40.5q37 0 64 1.5t60 5.5h4q7 0 12 -3.5t5 -11.5v-36zM322 -39q0 -4 -4 -8l-113 -126q-7 -8 -11 -11.5t-12 -3.5h-54q-9 0 -9 7q0 6 4 10l97 124q7 8 11.5 11.5t13.5 3.5h66q11 0 11 -7z" />
    <glyph glyph-name="eacute" unicode="&#xe9;" horiz-adv-x="544" 
d="M492 269q0 -22 -19 -22h-335v-14q0 -89 35 -126t104 -37q44 0 93.5 3t84.5 8h5q6 0 11 -3t5 -11v-34q0 -10 -4 -15.5t-16 -7.5q-43 -8 -85.5 -12.5t-93.5 -4.5q-43 0 -84 11.5t-72.5 39t-51 73.5t-19.5 116v90q0 108 57 171t165 63q55 0 96 -16.5t68.5 -47t41.5 -74
t14 -96.5v-54zM403 323q0 85 -32.5 121t-98.5 36q-65 0 -99.5 -38t-34.5 -119v-9h265v9zM434 772q0 -4 -4 -8l-113 -126q-7 -8 -11 -11.5t-12 -3.5h-54q-9 0 -9 7q0 6 4 10l98 124q7 8 11 11.5t13 3.5h66q11 0 11 -7z" />
    <glyph glyph-name="egrave" unicode="&#xe8;" horiz-adv-x="544" 
d="M492 269q0 -22 -19 -22h-335v-14q0 -89 35 -126t104 -37q44 0 93.5 3t84.5 8h5q6 0 11 -3t5 -11v-34q0 -10 -4 -15.5t-16 -7.5q-43 -8 -85.5 -12.5t-93.5 -4.5q-43 0 -84 11.5t-72.5 39t-51 73.5t-19.5 116v90q0 108 57 171t165 63q55 0 96 -16.5t68.5 -47t41.5 -74
t14 -96.5v-54zM403 323q0 85 -32.5 121t-98.5 36q-65 0 -99.5 -38t-34.5 -119v-9h265v9zM358 630q0 -7 -9 -7h-54q-8 0 -12 3.5t-11 11.5l-113 126q-4 4 -4 8q0 7 11 7h66q9 0 13.5 -3.5t11.5 -11.5l97 -124q4 -4 4 -10z" />
    <glyph glyph-name="ecircumflex" unicode="&#xea;" horiz-adv-x="544" 
d="M492 269q0 -22 -19 -22h-335v-14q0 -89 35 -126t104 -37q44 0 93.5 3t84.5 8h5q6 0 11 -3t5 -11v-34q0 -10 -4 -15.5t-16 -7.5q-43 -8 -85.5 -12.5t-93.5 -4.5q-43 0 -84 11.5t-72.5 39t-51 73.5t-19.5 116v90q0 108 57 171t165 63q55 0 96 -16.5t68.5 -47t41.5 -74
t14 -96.5v-54zM403 323q0 85 -32.5 121t-98.5 36q-65 0 -99.5 -38t-34.5 -119v-9h265v9zM439 630q0 -7 -9 -7h-52q-8 0 -12 3.5t-11 11.5l-82 97l-83 -97q-7 -8 -11 -11.5t-12 -3.5h-52q-9 0 -9 7q0 6 4 10l96 124q7 8 11 11.5t13 3.5h85q9 0 13.5 -3.5t11.5 -11.5l95 -124
q4 -4 4 -10z" />
    <glyph glyph-name="edieresis" unicode="&#xeb;" horiz-adv-x="544" 
d="M492 269q0 -22 -19 -22h-335v-14q0 -89 35 -126t104 -37q44 0 93.5 3t84.5 8h5q6 0 11 -3t5 -11v-34q0 -10 -4 -15.5t-16 -7.5q-43 -8 -85.5 -12.5t-93.5 -4.5q-43 0 -84 11.5t-72.5 39t-51 73.5t-19.5 116v90q0 108 57 171t165 63q55 0 96 -16.5t68.5 -47t41.5 -74
t14 -96.5v-54zM403 323q0 85 -32.5 121t-98.5 36q-65 0 -99.5 -38t-34.5 -119v-9h265v9zM403 660q0 -8 -6 -13.5t-14 -5.5h-39q-8 0 -14 5.5t-6 13.5v81q0 8 6 14t14 6h39q8 0 14 -6t6 -14v-81zM228 660q0 -8 -6 -13.5t-14 -5.5h-39q-8 0 -14 5.5t-6 13.5v81q0 8 6 14t14 6
h39q8 0 14 -6t6 -14v-81z" />
    <glyph glyph-name="iacute" unicode="&#xed;" horiz-adv-x="247" 
d="M167 20q0 -8 -6 -14t-14 -6h-48q-8 0 -14 6t-6 14v510q0 8 6 14t14 6h48q8 0 14 -6t6 -14v-510zM271 772q0 -4 -4 -8l-113 -126q-7 -8 -11 -11.5t-12 -3.5h-54q-9 0 -9 7q0 6 4 10l98 124q7 8 11 11.5t13 3.5h66q11 0 11 -7z" />
    <glyph glyph-name="igrave" unicode="&#xec;" horiz-adv-x="247" 
d="M167 20q0 -8 -6 -14t-14 -6h-48q-8 0 -14 6t-6 14v510q0 8 6 14t14 6h48q8 0 14 -6t6 -14v-510zM185 630q0 -7 -9 -7h-54q-8 0 -12 3.5t-11 11.5l-113 126q-4 4 -4 8q0 7 11 7h66q9 0 13.5 -3.5t11.5 -11.5l97 -124q4 -4 4 -10z" />
    <glyph glyph-name="icircumflex" unicode="&#xee;" horiz-adv-x="247" 
d="M167 20q0 -8 -6 -14t-14 -6h-48q-8 0 -14 6t-6 14v510q0 8 6 14t14 6h48q8 0 14 -6t6 -14v-510zM289 630q0 -7 -9 -7h-52q-8 0 -12 3.5t-11 11.5l-82 97l-83 -97q-7 -8 -11 -11.5t-12 -3.5h-52q-9 0 -9 7q0 6 4 10l96 124q7 8 11 11.5t13 3.5h85q9 0 13.5 -3.5
t11.5 -11.5l95 -124q4 -4 4 -10z" />
    <glyph glyph-name="idieresis" unicode="&#xef;" horiz-adv-x="247" 
d="M167 20q0 -8 -6 -14t-14 -6h-48q-8 0 -14 6t-6 14v510q0 8 6 14t14 6h48q8 0 14 -6t6 -14v-510zM250 660q0 -8 -6 -13.5t-14 -5.5h-39q-8 0 -14 5.5t-6 13.5v81q0 8 6 14t14 6h39q8 0 14 -6t6 -14v-81zM75 660q0 -8 -6 -13.5t-14 -5.5h-39q-8 0 -14 5.5t-6 13.5v81
q0 8 6 14t14 6h39q8 0 14 -6t6 -14v-81z" />
    <glyph glyph-name="ntilde" unicode="&#xf1;" horiz-adv-x="557" 
d="M489 20q0 -8 -6 -14t-14 -6h-48q-8 0 -14 6t-6 14v329q0 38 -6.5 63.5t-20 40.5t-34.5 21.5t-49 6.5q-32 0 -66 -11t-69 -28v-422q0 -8 -6 -14t-14 -6h-49q-8 0 -13.5 6t-5.5 14v510q0 8 5.5 14t13.5 6h50q8 0 13.5 -6t5.5 -14v-19q42 23 78 34.5t81 11.5q91 0 132.5 -54
t41.5 -154v-329zM460 731q0 -52 -21.5 -78.5t-72.5 -26.5q-17 0 -33.5 5t-30.5 16l-61 49q-18 14 -25 18t-16 4q-18 0 -24.5 -11.5t-6.5 -34.5v-21q0 -7 -5 -12t-12 -5h-31q-7 0 -11.5 5t-4.5 12v21q0 54 25 81.5t70 27.5q17 0 31.5 -6.5t28.5 -17.5l71 -56q8 -6 18 -10
t17 -4q15 0 22.5 9t7.5 35v23q0 7 5 12t12 5h31q7 0 11.5 -5t4.5 -12v-23z" />
    <glyph glyph-name="oacute" unicode="&#xf3;" horiz-adv-x="545" 
d="M495 237q0 -55 -14 -100t-42 -77t-70 -49.5t-97 -17.5t-96.5 17.5t-69.5 49.5t-42 77t-14 100v76q0 55 14 100t42 77t69.5 49.5t96.5 17.5t97 -17.5t70 -49.5t42 -77t14 -100v-76zM407 313q0 77 -32 122t-103 45q-70 0 -102 -44.5t-32 -122.5v-76q0 -77 31.5 -122
t102.5 -45q70 0 102.5 44.5t32.5 122.5v76zM426 772q0 -4 -4 -8l-113 -126q-7 -8 -11 -11.5t-12 -3.5h-54q-9 0 -9 7q0 6 4 10l98 124q7 8 11 11.5t13 3.5h66q11 0 11 -7z" />
    <glyph glyph-name="ograve" unicode="&#xf2;" horiz-adv-x="545" 
d="M495 237q0 -55 -14 -100t-42 -77t-70 -49.5t-97 -17.5t-96.5 17.5t-69.5 49.5t-42 77t-14 100v76q0 55 14 100t42 77t69.5 49.5t96.5 17.5t97 -17.5t70 -49.5t42 -77t14 -100v-76zM407 313q0 77 -32 122t-103 45q-70 0 -102 -44.5t-32 -122.5v-76q0 -77 31.5 -122
t102.5 -45q70 0 102.5 44.5t32.5 122.5v76zM330 630q0 -7 -9 -7h-54q-8 0 -12 3.5t-11 11.5l-113 126q-4 4 -4 8q0 7 11 7h66q9 0 13.5 -3.5t11.5 -11.5l97 -124q4 -4 4 -10z" />
    <glyph glyph-name="ocircumflex" unicode="&#xf4;" horiz-adv-x="545" 
d="M495 237q0 -55 -14 -100t-42 -77t-70 -49.5t-97 -17.5t-96.5 17.5t-69.5 49.5t-42 77t-14 100v76q0 55 14 100t42 77t69.5 49.5t96.5 17.5t97 -17.5t70 -49.5t42 -77t14 -100v-76zM407 313q0 77 -32 122t-103 45q-70 0 -102 -44.5t-32 -122.5v-76q0 -77 31.5 -122
t102.5 -45q70 0 102.5 44.5t32.5 122.5v76zM440 630q0 -7 -9 -7h-52q-8 0 -12 3.5t-11 11.5l-82 97l-83 -97q-7 -8 -11 -11.5t-12 -3.5h-52q-9 0 -9 7q0 6 4 10l96 124q7 8 11 11.5t13 3.5h85q9 0 13.5 -3.5t11.5 -11.5l95 -124q4 -4 4 -10z" />
    <glyph glyph-name="odieresis" unicode="&#xf6;" horiz-adv-x="545" 
d="M495 237q0 -55 -14 -100t-42 -77t-70 -49.5t-97 -17.5t-96.5 17.5t-69.5 49.5t-42 77t-14 100v76q0 55 14 100t42 77t69.5 49.5t96.5 17.5t97 -17.5t70 -49.5t42 -77t14 -100v-76zM407 313q0 77 -32 122t-103 45q-70 0 -102 -44.5t-32 -122.5v-76q0 -77 31.5 -122
t102.5 -45q70 0 102.5 44.5t32.5 122.5v76zM398 660q0 -8 -6 -13.5t-14 -5.5h-39q-8 0 -14 5.5t-6 13.5v81q0 8 6 14t14 6h39q8 0 14 -6t6 -14v-81zM223 660q0 -8 -6 -13.5t-14 -5.5h-39q-8 0 -14 5.5t-6 13.5v81q0 8 6 14t14 6h39q8 0 14 -6t6 -14v-81z" />
    <glyph glyph-name="otilde" unicode="&#xf5;" horiz-adv-x="545" 
d="M495 237q0 -55 -14 -100t-42 -77t-70 -49.5t-97 -17.5t-96.5 17.5t-69.5 49.5t-42 77t-14 100v76q0 55 14 100t42 77t69.5 49.5t96.5 17.5t97 -17.5t70 -49.5t42 -77t14 -100v-76zM407 313q0 77 -32 122t-103 45q-70 0 -102 -44.5t-32 -122.5v-76q0 -77 31.5 -122
t102.5 -45q70 0 102.5 44.5t32.5 122.5v76zM456 731q0 -52 -21.5 -78.5t-72.5 -26.5q-17 0 -33.5 5t-30.5 16l-61 49q-18 14 -25 18t-16 4q-18 0 -24.5 -11.5t-6.5 -34.5v-21q0 -7 -5 -12t-12 -5h-31q-7 0 -11.5 5t-4.5 12v21q0 54 25 81.5t70 27.5q17 0 31.5 -6.5
t28.5 -17.5l71 -56q8 -6 18 -10t17 -4q15 0 22.5 9t7.5 35v23q0 7 5 12t12 5h31q7 0 11.5 -5t4.5 -12v-23z" />
    <glyph glyph-name="uacute" unicode="&#xfa;" horiz-adv-x="557" 
d="M489 20q0 -8 -5.5 -14t-13.5 -6h-50q-8 0 -13.5 6t-5.5 14v19q-42 -23 -78 -34.5t-81 -11.5q-91 0 -132.5 54t-41.5 154v329q0 8 6 14t14 6h48q8 0 14 -6t6 -14v-329q0 -38 6.5 -63.5t20 -40.5t34 -21.5t49.5 -6.5q32 0 66 11t69 28v422q0 8 6 14t14 6h49q8 0 13.5 -6
t5.5 -14v-510zM434 772q0 -4 -4 -8l-113 -126q-7 -8 -11 -11.5t-12 -3.5h-54q-9 0 -9 7q0 6 4 10l98 124q7 8 11 11.5t13 3.5h66q11 0 11 -7z" />
    <glyph glyph-name="ugrave" unicode="&#xf9;" horiz-adv-x="557" 
d="M489 20q0 -8 -5.5 -14t-13.5 -6h-50q-8 0 -13.5 6t-5.5 14v19q-42 -23 -78 -34.5t-81 -11.5q-91 0 -132.5 54t-41.5 154v329q0 8 6 14t14 6h48q8 0 14 -6t6 -14v-329q0 -38 6.5 -63.5t20 -40.5t34 -21.5t49.5 -6.5q32 0 66 11t69 28v422q0 8 6 14t14 6h49q8 0 13.5 -6
t5.5 -14v-510zM336 630q0 -7 -9 -7h-54q-8 0 -12 3.5t-11 11.5l-113 126q-4 4 -4 8q0 7 11 7h66q9 0 13.5 -3.5t11.5 -11.5l97 -124q4 -4 4 -10z" />
    <glyph glyph-name="ucircumflex" unicode="&#xfb;" horiz-adv-x="557" 
d="M489 20q0 -8 -5.5 -14t-13.5 -6h-50q-8 0 -13.5 6t-5.5 14v19q-42 -23 -78 -34.5t-81 -11.5q-91 0 -132.5 54t-41.5 154v329q0 8 6 14t14 6h48q8 0 14 -6t6 -14v-329q0 -38 6.5 -63.5t20 -40.5t34 -21.5t49.5 -6.5q32 0 66 11t69 28v422q0 8 6 14t14 6h49q8 0 13.5 -6
t5.5 -14v-510zM446 630q0 -7 -9 -7h-52q-8 0 -12 3.5t-11 11.5l-82 97l-83 -97q-7 -8 -11 -11.5t-12 -3.5h-52q-9 0 -9 7q0 6 4 10l96 124q7 8 11 11.5t13 3.5h85q9 0 13.5 -3.5t11.5 -11.5l95 -124q4 -4 4 -10z" />
    <glyph glyph-name="udieresis" unicode="&#xfc;" horiz-adv-x="557" 
d="M489 20q0 -8 -5.5 -14t-13.5 -6h-50q-8 0 -13.5 6t-5.5 14v19q-42 -23 -78 -34.5t-81 -11.5q-91 0 -132.5 54t-41.5 154v329q0 8 6 14t14 6h48q8 0 14 -6t6 -14v-329q0 -38 6.5 -63.5t20 -40.5t34 -21.5t49.5 -6.5q32 0 66 11t69 28v422q0 8 6 14t14 6h49q8 0 13.5 -6
t5.5 -14v-510zM405 660q0 -8 -6 -13.5t-14 -5.5h-39q-8 0 -14 5.5t-6 13.5v81q0 8 6 14t14 6h39q8 0 14 -6t6 -14v-81zM230 660q0 -8 -6 -13.5t-14 -5.5h-39q-8 0 -14 5.5t-6 13.5v81q0 8 6 14t14 6h39q8 0 14 -6t6 -14v-81z" />
    <glyph glyph-name="dagger" unicode="&#x2020;" horiz-adv-x="404" 
d="M367 495q0 -16 -19 -16h-109v-459q0 -8 -4 -14t-12 -6h-57q-8 0 -12 6t-4 14v459h-94q-19 0 -19 16v45q0 15 19 15h94v178q0 8 4.5 13.5t12.5 5.5h56q8 0 12 -5.5t4 -13.5v-178h109q19 0 19 -15v-45z" />
    <glyph glyph-name="degree" unicode="&#xb0;" horiz-adv-x="342" 
d="M314 608q0 -29 -11 -55t-30.5 -45.5t-45.5 -30.5t-55 -11t-55 11t-45.5 30.5t-31 45.5t-11.5 55t11.5 55t31 45.5t45.5 30.5t55 11t55 -11t45.5 -30.5t30.5 -45.5t11 -55zM260 608q0 18 -7 34t-19 28t-28 19t-34 7t-34 -7t-28 -19t-19 -28t-7 -34t7 -34t19 -28t28 -19
t34 -7t34 7t28 19t19 28t7 34z" />
    <glyph glyph-name="cent" unicode="&#xa2;" 
d="M482 26q0 -10 -4 -15t-16 -7q-19 -3 -43.5 -5.5t-50.5 -4.5v-90q0 -8 -6 -14t-14 -6h-41q-8 0 -14 6t-6 14v94q-79 16 -121 78.5t-42 159.5v78q0 97 42 159.5t121 78.5v93q0 8 6 14t14 6h41q8 0 14 -6t6 -14v-89q26 -2 50.5 -4.5t43.5 -5.5q12 -2 16 -6.5t4 -15.5v-36
q0 -8 -5 -11.5t-12 -3.5h-4q-33 4 -60 6t-64 2q-60 0 -92.5 -41t-32.5 -126v-78q0 -85 32 -126t93 -41q37 0 64 2t60 6h4q7 0 12 -3.5t5 -11.5v-36z" />
    <glyph glyph-name="sterling" unicode="&#xa3;" 
d="M535 17q0 -8 -6 -12.5t-14 -4.5h-399q-9 0 -13 5t-4 10v39q0 8 3.5 13t6.5 10q17 29 24 54t7 64v152h-52q-8 0 -13 5t-5 13v42q0 8 6 13t14 5h50v65q0 62 10.5 109.5t36 79t68 47.5t106.5 16q19 0 41 -1t42.5 -3t39 -4.5t32.5 -4.5q12 -2 15.5 -5.5t3.5 -11.5v-41
q0 -17 -15 -17h-5q-33 4 -76 7.5t-78 3.5q-39 0 -64 -8.5t-40 -28.5t-20.5 -53.5t-5.5 -84.5v-65h215q8 0 13.5 -5t5.5 -13v-42q0 -8 -6 -13t-14 -5h-214v-152q0 -38 -11 -67t-24 -52h319q8 0 14 -3.5t6 -11.5v-44z" />
    <glyph glyph-name="section" unicode="&#xa7;" horiz-adv-x="547" 
d="M499 -17q0 -38 -11 -73.5t-38.5 -63.5t-75.5 -45t-122 -17q-53 0 -94 4.5t-74 9.5q-7 2 -13 6.5t-6 12.5v42q0 8 6 12.5t14 4.5h2q41 -4 81 -7t81 -3h3q45 0 74 8.5t46 24t23.5 37t6.5 47.5q0 20 -4.5 35.5t-16.5 30t-33 29.5t-54 35l-112 67q-40 24 -66 45.5t-41 43.5
t-21 46t-6 53q0 32 10 57t24 48q-16 17 -25 43.5t-9 57.5q0 41 12.5 74t41 55.5t74 34.5t111.5 12q21 0 47 -1.5t50.5 -3.5t45.5 -4t32 -4q8 -2 13 -6.5t5 -12.5v-43q0 -8 -5 -12.5t-13 -4.5h-1q-44 2 -87 5.5t-87 3.5t-72 -5.5t-44 -17t-22 -29t-6 -41.5q0 -17 4.5 -31
t16 -27t31 -27t49.5 -32l109 -64q45 -26 73 -50t44.5 -48t22.5 -49t6 -53q0 -29 -6.5 -57t-22.5 -52q16 -23 22.5 -48t6.5 -53zM407 193q0 20 -5 35.5t-16.5 29.5t-31 28.5t-49.5 32.5l-90 55q-17 11 -36.5 23t-35.5 24q-5 -16 -7 -25t-2 -28q0 -35 22.5 -61.5t66.5 -52.5
l110 -64q23 -14 36.5 -22.5t30.5 -20.5q3 8 4 13t2 9.5t1 9.5v14z" />
    <glyph glyph-name="bullet" unicode="&#x2022;" horiz-adv-x="418" 
d="M368 367q0 -33 -12.5 -62t-34 -50.5t-50.5 -34t-62 -12.5t-62 12.5t-50.5 34t-34 50.5t-12.5 62t12.5 62t34 50.5t50.5 34t62 12.5t62 -12.5t50.5 -34t34 -50.5t12.5 -62z" />
    <glyph glyph-name="paragraph" unicode="&#xb6;" horiz-adv-x="622" 
d="M557 -176q0 -8 -4.5 -13.5t-12.5 -5.5h-23q-8 0 -12.5 5.5t-4.5 13.5v865h-58v-865q0 -8 -4.5 -13.5t-12.5 -5.5h-23q-8 0 -12.5 5.5t-4.5 13.5v439h-104q-52 0 -95 14.5t-74.5 43t-49 70t-17.5 95.5v34q0 54 17.5 95.5t49 70t74.5 43t95 14.5h260q16 0 16 -19v-900z" />
    <glyph glyph-name="germandbls" unicode="&#xdf;" horiz-adv-x="581" 
d="M527 215q0 -59 -19.5 -101t-52 -69t-75.5 -39.5t-90 -12.5q-11 0 -22 0.5t-26 2.5q-8 1 -14 6t-6 13v41q0 11 11 11q10 0 22.5 -0.5t20.5 -0.5q36 0 66 7t51 24t33 45.5t12 72.5v14q0 55 -39 91.5t-116 36.5h-37q-8 0 -14 6t-6 14v29q0 8 6 14t14 6h37q38 0 64.5 10
t43.5 27t24.5 39t7.5 46v12q0 55 -31 88t-100 33q-70 0 -104 -39.5t-34 -127.5v-493q0 -8 -5 -14.5t-13 -6.5h-53q-8 0 -13 6.5t-5 14.5v493q0 63 16 109t45.5 76t71.5 44.5t94 14.5q48 0 88 -11.5t69 -35.5t45.5 -61.5t16.5 -89.5v-12q0 -54 -31 -94.5t-74 -59.5
q53 -19 87 -62t34 -103v-14z" />
    <glyph glyph-name="registered" unicode="&#xae;" horiz-adv-x="598" 
d="M569 484q0 -56 -21 -105t-58 -85t-86 -57t-105 -21t-105 21t-85.5 57t-57.5 85t-21 105t21 105t57.5 85.5t85.5 57.5t105 21t105 -21t86 -57.5t58 -85.5t21 -105zM528 484q0 47 -18 89t-49 73t-73 49t-89 18t-88.5 -18t-72.5 -49t-48.5 -73t-17.5 -89t17.5 -88.5
t48.5 -72.5t72.5 -48.5t88.5 -17.5t89 17.5t73 48.5t49 72.5t18 88.5zM425 331q0 -13 -12 -13h-28q-8 0 -12 8l-81 128l-12 3h-40v-124q0 -5 -4 -10t-10 -5h-25q-6 0 -9.5 5t-3.5 10v302q0 20 18 22q6 1 15.5 1.5t20 1t21.5 0.5h19q63 0 97 -22t34 -79v-4q0 -38 -17.5 -59.5
t-49.5 -30.5l77 -125q2 -4 2 -9zM363 559q0 30 -18 42t-60 12h-46v-112q8 0 24 -0.5t22 -0.5q42 0 60 12.5t18 42.5v4z" />
    <glyph glyph-name="copyright" unicode="&#xa9;" horiz-adv-x="750" 
d="M700 374q0 -67 -26 -126t-70 -103t-103.5 -69.5t-126.5 -25.5t-126 25.5t-103 69.5t-69.5 103t-25.5 126t25.5 126.5t69.5 104t103 70.5t126 26t126.5 -26t103.5 -70.5t70 -104t26 -126.5zM656 374q0 58 -22 110t-60.5 90t-90 60.5t-109.5 22.5q-59 0 -110 -22.5
t-89 -60.5t-60 -90t-22 -110q0 -59 22 -110t60 -88.5t89 -59.5t110 -22q58 0 109.5 22t90 59.5t60.5 88.5t22 110zM476 183q0 -8 -5 -11t-10 -4q-11 -2 -33.5 -4.5t-57.5 -2.5q-32 0 -60 10t-48.5 31.5t-32.5 56.5t-12 85v66q0 50 12 85t32.5 57t48.5 32t60 10q35 0 57.5 -3
t33.5 -5q5 -1 10 -3.5t5 -10.5v-28q0 -8 -4 -10t-9 -2h-3q-16 2 -39.5 3.5t-50.5 1.5q-18 0 -34.5 -6t-29 -21t-20 -39.5t-7.5 -60.5v-66q0 -36 7.5 -60.5t20 -39t29 -20.5t34.5 -6q26 0 50 1.5t40 3.5h2q5 0 9.5 -2.5t4.5 -10.5v-27z" />
    <glyph glyph-name="trademark" unicode="&#x2122;" horiz-adv-x="790" 
d="M747 346q0 -10 -10 -10h-41q-10 0 -10 10v240q0 30 -3 49.5t-13.5 31.5t-31.5 17t-57 5v-343q0 -10 -10 -10h-42q-10 0 -10 10v343q-32 0 -58.5 -2t-47.5 -4v-337q0 -10 -9 -10h-41q-10 0 -10 10v371q0 18 15 19q44 5 89.5 7.5t92.5 2.5q52 0 89 -6t61 -23.5t35.5 -48.5
t11.5 -82v-240zM317 703q0 -8 -5.5 -11t-11.5 -3h-97v-337q0 -6 -4.5 -11t-11.5 -5h-32q-7 0 -11 5t-4 11v337h-99q-6 0 -11 3t-5 11v25q0 7 5 11t11 4h259q6 0 11.5 -4t5.5 -11v-25z" />
    <glyph glyph-name="acute" unicode="&#xb4;" horiz-adv-x="373" 
d="M333 772q0 -4 -4 -8l-113 -126q-7 -8 -11 -11.5t-12 -3.5h-54q-9 0 -9 7q0 6 4 10l98 124q7 8 11 11.5t13 3.5h66q11 0 11 -7z" />
    <glyph glyph-name="dieresis" unicode="&#xa8;" horiz-adv-x="373" 
d="M314 660q0 -8 -6 -13.5t-14 -5.5h-39q-8 0 -14 5.5t-6 13.5v81q0 8 6 14t14 6h39q8 0 14 -6t6 -14v-81zM139 660q0 -8 -6 -13.5t-14 -5.5h-39q-8 0 -14 5.5t-6 13.5v81q0 8 6 14t14 6h39q8 0 14 -6t6 -14v-81z" />
    <glyph glyph-name="notequal" unicode="&#x2260;" 
d="M515 261q0 -8 -6 -12t-14 -4h-203l-77 -226q-2 -8 -6.5 -13.5t-18.5 -5.5h-37q-8 0 -11.5 5.5t-1.5 13.5l77 226h-107q-8 0 -14 4t-6 12v40q0 8 6 12t14 4h132l51 149h-183q-8 0 -14 4t-6 12v40q0 8 6 12t14 4h208l66 192q2 8 7.5 13.5t17.5 5.5h37q8 0 11.5 -5.5
t1.5 -13.5l-66 -192h102q8 0 14 -4t6 -12v-40q0 -8 -6 -12t-14 -4h-127l-51 -149h178q8 0 14 -4t6 -12v-40z" />
    <glyph glyph-name="AE" unicode="&#xc6;" horiz-adv-x="859" 
d="M804 14q0 -5 -2.5 -9t-7.5 -5q-11 -1 -29.5 -2.5t-41.5 -2.5t-47.5 -1.5t-46.5 -0.5q-106 0 -159.5 43t-53.5 143v66h-239l-64 -230q-2 -6 -7 -10.5t-11 -4.5h-59q-17 0 -17 16q0 5 1 7l185 645q7 23 18.5 37.5t25 23t29 11.5t29.5 3h487q5 0 7.5 -4.5t2.5 -9.5v-53
q0 -12 -11 -12h-286v-239h277q8 0 14 -6t6 -14v-38q0 -8 -6 -14t-14 -6h-277v-168q0 -29 4.5 -48.5t17.5 -32t37 -18t64 -5.5h163q11 0 11 -12v-49zM416 664h-109q-15 0 -20 -17l-91 -323h220v340z" />
    <glyph glyph-name="Oslash" unicode="&#xd8;" horiz-adv-x="661" 
d="M633 735q0 -4 -3 -8l-71 -98q20 -36 31 -84t11 -109v-129q0 -83 -20 -142.5t-56 -97.5t-85.5 -56t-108.5 -18q-54 0 -101 15.5t-82 47.5l-31 -44q-5 -6 -11 -12.5t-14 -6.5h-53q-11 0 -11 11q0 3 3 8l72 100q-43 74 -43 195v129q0 83 20.5 142.5t56.5 97.5t85.5 56
t108.5 18q55 0 102 -15.5t82 -48.5l29 41q5 6 11.5 12.5t14.5 6.5h52q11 0 11 -11zM462 613q-45 55 -131 55q-41 0 -74 -12.5t-56.5 -40.5t-36 -72t-12.5 -107v-129q0 -32 3.5 -58.5t9.5 -49.5zM509 436q0 62 -12 106l-297 -414q23 -28 56 -40.5t75 -12.5q41 0 74 12.5
t56 40.5t35.5 72t12.5 107v129z" />
    <glyph glyph-name="infinity" unicode="&#x221e;" horiz-adv-x="614" 
d="M574 364q0 -35 -5.5 -73.5t-22 -70.5t-47 -52.5t-79.5 -20.5h-6q-29 0 -62 10t-62 42q-20 -30 -44.5 -42t-52.5 -12h-6q-49 0 -78 21t-44.5 53t-20 70.5t-4.5 73.5v25q0 36 5.5 74.5t22 70.5t46.5 52.5t79 20.5h7q28 0 60.5 -11t61.5 -42q19 29 43 41.5t57 12.5h6
q49 0 78 -20.5t44 -52.5t19.5 -70.5t4.5 -74.5v-25zM502 389q0 30 -2 58.5t-9.5 50t-22.5 34.5t-40 13h-6q-18 0 -31 -8.5t-22 -28t-15.5 -52t-13.5 -81.5q-4 -27 -7 -46t-6 -32.5t-5 -23t-5 -17.5q26 -29 51.5 -38.5t45.5 -9.5h6q25 0 41 13t25 34.5t12.5 50t3.5 58.5v25z
M294 493q-24 29 -49.5 40t-45.5 11h-5q-26 0 -42 -13.5t-24.5 -35t-11.5 -49.5t-3 -58v-25q0 -30 2 -58t9.5 -49.5t22 -35t40.5 -13.5h6q17 0 29.5 8.5t22 28.5t16.5 53.5t14 83.5q4 28 7 46.5t5 31t3.5 20.5t3.5 14z" />
    <glyph glyph-name="plusminus" unicode="&#xb1;" 
d="M530 371q0 -8 -6 -12t-14 -4h-172v-171q0 -8 -4 -14t-12 -6h-40q-8 0 -12 6t-4 14v171h-171q-8 0 -14 4t-6 12v40q0 8 6 12t14 4h171v172q0 8 4 14t12 6h40q8 0 12 -6t4 -14v-172h172q8 0 14 -4t6 -12v-40zM530 16q0 -8 -6 -12t-14 -4h-415q-8 0 -14 4t-6 12v33q0 8 6 12
t14 4h415q8 0 14 -4t6 -12v-33z" />
    <glyph glyph-name="lessequal" unicode="&#x2264;" horiz-adv-x="525" 
d="M405 163q0 -11 -13 -11h-69q-7 0 -12 2t-12 10l-201 201q-7 5 -10 15t-3 18q0 7 3 17t10 15l201 201q7 8 12 10t12 2h69q13 0 13 -11q0 -8 -8 -15l-220 -219l220 -220q8 -7 8 -15zM490 16q0 -8 -6 -12t-14 -4h-415q-8 0 -14 4t-6 12v33q0 8 6 12t14 4h415q8 0 14 -4
t6 -12v-33z" />
    <glyph glyph-name="greaterequal" unicode="&#x2265;" horiz-adv-x="525" 
d="M120 163q0 8 8 15l220 220l-220 219q-8 7 -8 15q0 11 13 11h69q7 0 12 -2t12 -10l201 -201q7 -5 10 -15t3 -17q0 -8 -3 -18t-10 -15l-201 -201q-7 -8 -12 -10t-12 -2h-69q-13 0 -13 11zM35 49q0 8 6 12t14 4h415q8 0 14 -4t6 -12v-33q0 -8 -6 -12t-14 -4h-415q-8 0 -14 4
t-6 12v33z" />
    <glyph glyph-name="yen" unicode="&#xa5;" 
d="M569 231q0 -8 -6 -14t-14 -6h-200v-191q0 -8 -5 -14t-13 -6h-57q-8 0 -12.5 6t-4.5 14v191h-201q-8 0 -14 6t-6 14v30q0 8 6 14t14 6h201v21l-55 110h-146q-8 0 -14 6t-6 14v30q0 8 6 14t14 6h111l-119 236q-3 7 -3 12q0 13 16 13h63q5 0 10 -4.5t7 -9.5l162 -339
l162 339q2 5 6.5 9.5t10.5 4.5h62q17 0 17 -14q0 -5 -3 -11l-119 -236h110q8 0 14 -6t6 -14v-30q0 -8 -6 -14t-14 -6h-145l-55 -110v-21h200q8 0 14 -6t6 -14v-30z" />
    <glyph glyph-name="uni00B5" unicode="&#xb5;" horiz-adv-x="557" 
d="M489 44q0 -17 -19 -23q-35 -13 -84.5 -20.5t-100.5 -7.5q-79 0 -129 29v-198q0 -8 -6 -14t-14 -6h-48q-8 0 -14 6t-6 14v706q0 8 5.5 14t13.5 6h50q8 0 13.5 -6t5.5 -14v-329q0 -70 31 -101.5t98 -31.5q30 0 61.5 3.5t54.5 10.5v448q0 8 6 14t14 6h49q8 0 13.5 -6
t5.5 -14v-486z" />
    <glyph glyph-name="partialdiff" unicode="&#x2202;" horiz-adv-x="560" 
d="M520 474q0 -26 -2 -55t-5 -59.5t-7 -60.5t-8 -57q-22 -119 -85 -185.5t-177 -66.5q-101 0 -148.5 51.5t-47.5 139.5q0 9 0.5 18t1.5 22.5t3.5 33t7.5 47.5q11 64 33 109.5t54.5 74t74.5 41.5t93 13q34 0 69.5 -11t58.5 -37l-3 14q-2 42 -10.5 81t-31 70t-62 49.5
t-103.5 18.5q-25 0 -49 -1.5t-51 -6.5q-18 -3 -17 10l4 29q1 16 17 20q49 10 107 10q76 0 129.5 -22t87.5 -63t50 -98.5t16 -128.5zM421 355q0 54 -25 83.5t-88 29.5q-74 0 -113 -46t-52 -129q-4 -28 -6.5 -46.5t-4 -31t-2 -20.5t-0.5 -15q0 -57 26 -88t87 -31
q74 0 112 46.5t52 129.5q5 28 7.5 47.5t4 32.5t2 21.5t0.5 16.5z" />
    <glyph glyph-name="summation" unicode="&#x2211;" horiz-adv-x="517" 
d="M462 -59q0 -16 -14 -16h-376q-11 0 -14 6t-3 14v46q0 14 6 24l191 307q2 4 2.5 6.5t0.5 5.5t-0.5 5.5t-2.5 6.5l-191 307q-6 10 -6 24v46q0 8 3 14t14 6h376q14 0 14 -16v-48q0 -8 -2.5 -12.5t-11.5 -4.5h-278q-8 0 -3 -9l177 -285q6 -9 6 -20v-28q0 -11 -6 -20
l-177 -285q-5 -9 3 -9h278q9 0 11.5 -4.5t2.5 -12.5v-48z" />
    <glyph glyph-name="product" unicode="&#x220f;" horiz-adv-x="641" 
d="M620 671q0 -10 -11 -10h-72v-718q0 -11 -6 -14.5t-11 -3.5h-56q-7 0 -12 3.5t-5 14.5v718h-252v-718q0 -11 -5 -14.5t-12 -3.5h-56q-5 0 -11 3.5t-6 14.5v718h-73q-11 0 -11 10v61q0 8 2.5 9.5t8.5 1.5h577q6 0 8.5 -1.5t2.5 -9.5v-61z" />
    <glyph glyph-name="pi" unicode="&#x3c0;" horiz-adv-x="552" 
d="M447 469v-335q0 -23 2 -37.5t7.5 -23t15 -11.5t25.5 -3h24q10 0 10 -11v-43q0 -8 -3 -9.5t-8 -3.5q-8 -2 -18 -3t-22 -1q-34 0 -57 8t-37 25t-20 45t-6 68v335h-166v-449q0 -7 -2 -13.5t-12 -6.5h-60q-9 0 -12 5.5t-3 14.5v449h-69q-8 0 -11.5 2.5t-3.5 12.5v50
q0 10 3.5 13t11.5 3h480q8 0 11.5 -3t3.5 -13v-50q0 -10 -3.5 -12.5t-11.5 -2.5h-69z" />
    <glyph glyph-name="uni03BC" unicode="&#x3bc;" horiz-adv-x="557" 
d="M489 44q0 -17 -19 -23q-35 -13 -84.5 -20.5t-100.5 -7.5q-79 0 -129 29v-198q0 -8 -6 -14t-14 -6h-48q-8 0 -14 6t-6 14v706q0 8 5.5 14t13.5 6h50q8 0 13.5 -6t5.5 -14v-329q0 -70 31 -101.5t98 -31.5q30 0 61.5 3.5t54.5 10.5v448q0 8 6 14t14 6h49q8 0 13.5 -6
t5.5 -14v-486z" />
    <glyph glyph-name="integral" unicode="&#x222b;" horiz-adv-x="451" 
d="M413 700q0 -10 -11 -9q-14 1 -35 1.5t-41 0.5t-31.5 -3.5t-17 -13.5t-7 -26.5t-1.5 -42.5v-654q0 -33 -4 -61.5t-17.5 -49.5t-39.5 -33t-71 -12q-26 0 -50 3t-39 7q-10 1 -10 13v40q0 10 11 9q14 -1 35 -1.5t41 -0.5t31.5 3.5t17 13.5t7 26.5t1.5 42.5v654q0 33 3.5 61.5
t17 49.5t40 33t71.5 12q26 0 50 -3t39 -7q10 -1 10 -13v-40z" />
    <glyph glyph-name="ordfeminine" unicode="&#xaa;" horiz-adv-x="294" 
d="M264 450q0 -14 -10 -16q-23 -7 -48 -10t-50 -3q-68 0 -97 23.5t-29 74.5v7q0 48 34.5 70t107.5 22h32v13q0 35 -12.5 49t-41.5 14q-27 0 -47 -1.5t-37 -3.5h-2q-5 0 -9.5 3t-4.5 10v21q0 7 4.5 10t10.5 4q17 3 37.5 6t47.5 3q60 0 87 -29t27 -86v-181zM205 576h-32
q-48 -2 -66.5 -12.5t-18.5 -37.5v-7q0 -26 13.5 -38.5t54.5 -12.5q14 0 27.5 1.5t21.5 3.5v103z" />
    <glyph glyph-name="ordmasculine" unicode="&#xba;" horiz-adv-x="322" 
d="M291 566q0 -70 -32.5 -107.5t-96.5 -37.5t-97 37.5t-33 107.5v35q0 70 33 107.5t97 37.5t96.5 -37.5t32.5 -107.5v-35zM230 601q0 46 -15.5 69t-52.5 23t-53.5 -23t-16.5 -69v-35q0 -46 16.5 -69.5t53.5 -23.5t52.5 23.5t15.5 69.5v35z" />
    <glyph glyph-name="uni2126" unicode="&#x2126;" horiz-adv-x="592" 
d="M556 21q0 -12 -6.5 -16.5t-16.5 -4.5h-181q-21 0 -21 21v113q0 14 3 18t11 7q62 22 93.5 77t31.5 137v88q0 61 -13.5 102t-37 65.5t-55 35t-68.5 10.5t-68.5 -10.5t-55 -35t-37 -65.5t-13.5 -102v-88q0 -82 31.5 -137t93.5 -77q8 -3 11 -7t3 -18v-113q0 -21 -21 -21h-181
q-10 0 -16.5 4.5t-6.5 16.5v34q0 12 6.5 16t16.5 4h121v37q-41 17 -69 44t-45.5 61t-25.5 74t-8 82v88q0 141 69 217.5t195 76.5t195 -76.5t69 -217.5v-88q0 -42 -8 -82t-25.5 -74t-46 -61t-68.5 -44v-37h121q10 0 16.5 -4t6.5 -16v-34z" />
    <glyph glyph-name="ae" unicode="&#xe6;" horiz-adv-x="853" 
d="M803 269q0 -22 -19 -22h-333v-32q0 -77 35.5 -112.5t110.5 -35.5q44 0 90 4.5t81 9.5h5q16 0 16 -14v-34q0 -10 -4 -15.5t-16 -7.5q-43 -8 -84.5 -12.5t-92.5 -4.5q-58 0 -99.5 12.5t-73.5 46.5q-35 -30 -82.5 -44.5t-97.5 -14.5q-37 0 -71.5 9.5t-61 29.5t-42.5 51
t-16 75v9q0 41 12.5 71.5t41 50.5t74.5 30t113 10h75v40q0 63 -24.5 88t-83.5 25q-49 0 -86 -2.5t-67 -5.5h-5q-8 0 -13 3.5t-5 12.5v35q0 16 21 19q31 5 67.5 9t87.5 4q62 0 102.5 -18t63.5 -52q28 33 68.5 51.5t94.5 18.5q55 0 96 -18.5t68 -51.5t40.5 -78t13.5 -98v-42z
M364 265h-75q-45 0 -74.5 -5.5t-47 -17t-24 -30t-6.5 -45.5v-9q0 -27 9 -45t25 -29t36.5 -16t43.5 -5q31 0 61.5 7.5t51.5 23.5v171zM716 319q0 163 -131 163q-65 0 -99.5 -42.5t-34.5 -120.5v-5h265v5z" />
    <glyph glyph-name="oslash" unicode="&#xf8;" horiz-adv-x="545" 
d="M528 575q0 -7 -4 -11l-70 -94q41 -62 41 -157v-76q0 -55 -14 -100t-42 -77t-70 -49.5t-97 -17.5q-85 0 -139 42l-44 -60q-5 -7 -8 -8.5t-8 -1.5h-49q-8 0 -8 8q0 7 4 11l71 96q-41 62 -41 157v76q0 55 14 100t42 77t69.5 49.5t96.5 17.5q86 0 140 -42l42 58q5 7 8 8.5
t8 1.5h50q8 0 8 -8zM362 449q-34 31 -90 31q-71 0 -102.5 -44.5t-31.5 -122.5v-76q0 -46 10 -79zM407 313q0 42 -11 78l-214 -290q33 -31 90 -31q71 0 103 44.5t32 122.5v76z" />
    <glyph glyph-name="questiondown" unicode="&#xbf;" horiz-adv-x="446" 
d="M406 -165q0 -9 -2.5 -15t-14.5 -8q-31 -6 -66.5 -9.5t-69.5 -3.5q-43 0 -79.5 7.5t-63.5 25t-42 46.5t-15 72v12q0 18 3.5 35t13.5 36.5t28 43.5t46 56l45 51q14 16 24 27.5t16.5 23t9.5 23.5t3 29v49q0 8 6 13.5t14 5.5h44q8 0 13.5 -5.5t5.5 -13.5v-49q0 -24 -3 -42.5
t-10.5 -35.5t-20.5 -34.5t-32 -38.5l-46 -51q-19 -21 -31 -37t-19 -30t-9.5 -27.5t-2.5 -28.5v-12q0 -40 25 -56t77 -16q36 0 68.5 2.5t66.5 6.5h3q15 0 15 -17v-35zM328 438q0 -8 -6 -14t-14 -6h-48q-8 0 -13.5 6t-5.5 14v93q0 19 19 19h48q8 0 14 -5.5t6 -13.5v-93z" />
    <glyph glyph-name="exclamdown" unicode="&#xa1;" horiz-adv-x="217" 
d="M153 437q0 -8 -5.5 -13.5t-13.5 -5.5h-48q-8 0 -13.5 5.5t-5.5 13.5v94q0 19 19 19h48q8 0 13.5 -5.5t5.5 -13.5v-94zM84 -203q-8 0 -13.5 5.5t-5.5 13.5l7 520q0 8 6 13.5t14 5.5h35q8 0 14 -5.5t6 -13.5l8 -520q0 -8 -6 -13.5t-14 -5.5h-51z" />
    <glyph glyph-name="logicalnot" unicode="&#xac;" 
d="M515 247q0 -8 -6 -14t-14 -6h-32q-8 0 -14 6t-6 14v219h-333q-8 0 -14 4t-6 12v40q0 8 6 12t14 4h388q17 0 17 -17v-274z" />
    <glyph glyph-name="radical" unicode="&#x221a;" horiz-adv-x="730" 
d="M409 -59q-4 -16 -25 -16h-74q-9 0 -13 4t-7 14l-138 452q-2 7 -4 9t-8 2h-97q-7 0 -9 3.5t-2 8.5v47q0 14 11 14h148q7 0 12 -2.5t8 -12.5l139 -472l262 866q3 8 5 11.5t12 3.5h55q10 0 11 -4t-1 -10z" />
    <glyph glyph-name="florin" unicode="&#x192;" 
d="M548 739l-4 -32q-2 -15 -24 -15h-55q-36 0 -52.5 -14.5t-21.5 -53.5l-27 -196h143q17 0 17 -15v-3l-5 -37q-1 -8 -7.5 -13t-14.5 -5h-143l-50 -357q-6 -39 -20 -65.5t-34.5 -42t-47.5 -22.5t-58 -7q-26 0 -42 1.5t-27 3.5q-17 3 -17 14v3l4 32q1 15 24 15h55
q36 0 52.5 14.5t21.5 53.5l50 357h-128q-8 0 -13 4t-5 12v2l5 37q1 8 8 13t15 5h128l27 196q11 78 54 107.5t106 29.5q26 0 42 -1.5t27 -3.5q17 -3 17 -14v-3z" />
    <glyph glyph-name="approxequal" unicode="&#x2248;" 
d="M481 542q0 -52 -21 -78.5t-68 -26.5q-16 0 -34 4t-44 24l-52 42q-18 14 -25.5 18t-18.5 4q-16 0 -22 -11.5t-6 -34.5v-21q0 -7 -3.5 -12t-13.5 -5h-31q-11 0 -13.5 5t-2.5 12v21q0 54 24.5 81.5t64.5 27.5q10 0 19 -1.5t18 -5t19 -10.5t24 -18l57 -45q13 -10 21 -12
t17 -2q13 0 20 9t7 35v23q0 7 3 12t14 5h31q11 0 13.5 -5t2.5 -12v-23zM481 302q0 -52 -21 -78.5t-68 -26.5q-16 0 -34 4t-44 24l-52 42q-18 14 -25.5 18t-18.5 4q-16 0 -22 -11.5t-6 -34.5v-21q0 -7 -3.5 -12t-13.5 -5h-31q-11 0 -13.5 5t-2.5 12v21q0 54 24.5 81.5
t64.5 27.5q10 0 19 -1.5t18 -5t19 -10.5t24 -18l57 -45q13 -10 21 -12t17 -2q13 0 20 9t7 35v23q0 7 3 12t14 5h31q11 0 13.5 -5t2.5 -12v-23z" />
    <glyph glyph-name="uni2206" unicode="&#x2206;" horiz-adv-x="633" 
d="M604 16q0 -16 -17 -16h-541q-17 0 -17 16q0 5 1 7l185 651q6 23 17.5 37.5t25.5 23t29.5 12t29.5 3.5t29 -3t29 -11.5t25.5 -23t17.5 -37.5l185 -652q1 -2 1 -7zM336 653q-5 18 -19 18q-15 0 -20 -18l-156 -574h351z" />
    <glyph glyph-name="guillemotleft" unicode="&#xab;" horiz-adv-x="614" 
d="M560 79q0 -9 -11 -9h-58q-6 0 -10.5 2t-10.5 8l-169 169q-5 5 -8 13.5t-3 14.5t3 14.5t8 13.5l169 169q6 6 10.5 8t10.5 2h58q11 0 11 -9q0 -7 -6 -13l-178 -185l178 -185q6 -6 6 -13zM300 79q0 -9 -11 -9h-58q-6 0 -10.5 2t-10.5 8l-169 169q-5 5 -8 13.5t-3 14.5
t3 14.5t8 13.5l169 169q6 6 10.5 8t10.5 2h58q11 0 11 -9q0 -7 -6 -13l-178 -185l178 -185q6 -6 6 -13z" />
    <glyph glyph-name="guillemotright" unicode="&#xbb;" horiz-adv-x="614" 
d="M584 277q0 -6 -3 -14.5t-8 -13.5l-169 -169q-10 -10 -21 -10h-58q-11 0 -11 9q0 7 6 13l178 185l-178 185q-6 6 -6 13q0 9 11 9h58q6 0 10.5 -2t10.5 -8l169 -169q5 -5 8 -13.5t3 -14.5zM324 277q0 -6 -3 -14.5t-8 -13.5l-169 -169q-10 -10 -21 -10h-58q-11 0 -11 9
q0 7 6 13l178 185l-178 185q-6 6 -6 13q0 9 11 9h58q6 0 10.5 -2t10.5 -8l169 -169q5 -5 8 -13.5t3 -14.5z" />
    <glyph glyph-name="ellipsis" unicode="&#x2026;" horiz-adv-x="606" 
d="M548 19q0 -8 -5.5 -13.5t-13.5 -5.5h-48q-8 0 -14 5.5t-6 13.5v94q0 8 6 13.5t14 5.5h48q8 0 13.5 -5.5t5.5 -13.5v-94zM347 19q0 -8 -6 -13.5t-14 -5.5h-48q-8 0 -13.5 5.5t-5.5 13.5v94q0 8 5.5 13.5t13.5 5.5h48q8 0 14 -5.5t6 -13.5v-94zM145 19q0 -8 -5.5 -13.5
t-13.5 -5.5h-48q-8 0 -14 5.5t-6 13.5v94q0 8 6 13.5t14 5.5h48q8 0 13.5 -5.5t5.5 -13.5v-94z" />
    <glyph glyph-name="Agrave" unicode="&#xc0;" horiz-adv-x="633" 
d="M604 16q0 -16 -17 -16h-59q-7 0 -11 4.5t-6 10.5l-65 230h-259l-64 -230q-2 -6 -7 -10.5t-11 -4.5h-59q-17 0 -17 16q0 5 1 7l185 651q6 23 17.5 37.5t25.5 23t29.5 12t29.5 3.5t29 -3t29 -11.5t25.5 -23t17.5 -37.5l185 -652q1 -2 1 -7zM336 653q-5 18 -19 18
q-15 0 -20 -18l-91 -329h221zM385 801q0 -7 -9 -7h-54q-8 0 -12 3.5t-11 11.5l-113 126q-4 4 -4 8q0 7 11 7h66q9 0 13.5 -3.5t11.5 -11.5l97 -124q4 -4 4 -10z" />
    <glyph glyph-name="Atilde" unicode="&#xc3;" horiz-adv-x="633" 
d="M604 16q0 -16 -17 -16h-59q-7 0 -11 4.5t-6 10.5l-65 230h-259l-64 -230q-2 -6 -7 -10.5t-11 -4.5h-59q-17 0 -17 16q0 5 1 7l185 651q6 23 17.5 37.5t25.5 23t29.5 12t29.5 3.5t29 -3t29 -11.5t25.5 -23t17.5 -37.5l185 -652q1 -2 1 -7zM336 653q-5 18 -19 18
q-15 0 -20 -18l-91 -329h221zM497 894q0 -52 -21.5 -78.5t-72.5 -26.5q-17 0 -33.5 5t-30.5 16l-61 49q-18 14 -25 18t-16 4q-18 0 -24.5 -11.5t-6.5 -34.5v-21q0 -7 -5 -12t-12 -5h-31q-7 0 -11.5 5t-4.5 12v21q0 54 25 81.5t70 27.5q17 0 31.5 -6.5t28.5 -17.5l71 -56
q8 -6 18 -10t17 -4q15 0 22.5 9t7.5 35v23q0 7 5 12t12 5h31q7 0 11.5 -5t4.5 -12v-23z" />
    <glyph glyph-name="Otilde" unicode="&#xd5;" horiz-adv-x="661" 
d="M601 307q0 -83 -20 -142.5t-56 -97.5t-85.5 -56t-108.5 -18t-108.5 18t-85.5 56t-56.5 97.5t-20.5 142.5v129q0 83 20.5 142.5t56.5 97.5t85.5 56t108.5 18t108.5 -18t85.5 -56t56 -97.5t20 -142.5v-129zM509 436q0 63 -12.5 107t-35.5 72t-56 40.5t-74 12.5t-74 -12.5
t-56.5 -40.5t-36 -72t-12.5 -107v-129q0 -63 12.5 -107t35.5 -72t56.5 -40.5t74.5 -12.5t74 12.5t56 40.5t35.5 72t12.5 107v129zM511 894q0 -52 -21.5 -78.5t-72.5 -26.5q-17 0 -33.5 5t-30.5 16l-61 49q-18 14 -25 18t-16 4q-18 0 -24.5 -11.5t-6.5 -34.5v-21q0 -7 -5 -12
t-12 -5h-31q-7 0 -11.5 5t-4.5 12v21q0 54 25 81.5t70 27.5q17 0 31.5 -6.5t28.5 -17.5l71 -56q8 -6 18 -10t17 -4q15 0 22.5 9t7.5 35v23q0 7 5 12t12 5h31q7 0 11.5 -5t4.5 -12v-23z" />
    <glyph glyph-name="OE" unicode="&#x152;" horiz-adv-x="983" 
d="M928 15q0 -5 -2.5 -9t-7.5 -5q-20 -3 -72 -6t-123 -3q-72 0 -120 19.5t-71 63.5q-36 -42 -87.5 -62t-113.5 -20q-59 0 -108.5 18t-85.5 56t-56.5 97.5t-20.5 142.5v129q0 83 20.5 142.5t56.5 97.5t85.5 56t108.5 18q62 0 113.5 -20t87.5 -62q23 43 71 62.5t120 19.5
q71 0 123 -3t72 -6q5 -1 7.5 -5t2.5 -9v-47q0 -12 -11 -12h-193q-40 0 -64 -5.5t-37 -18t-17.5 -32.5t-4.5 -48v-139h307q8 0 14 -6t6 -14v-38q0 -8 -6 -14t-14 -6h-307v-169q0 -29 4.5 -48.5t17.5 -32t37 -18t64 -5.5h193q11 0 11 -12v-47zM510 440q0 46 -8 87.5
t-28.5 72.5t-55 49.5t-87.5 18.5q-41 0 -74.5 -12.5t-56.5 -40.5t-35.5 -72t-12.5 -107v-129q0 -63 12.5 -107t35.5 -72t56.5 -40.5t74.5 -12.5q53 0 87.5 19t55 50.5t28.5 73.5t8 88v134z" />
    <glyph glyph-name="oe" unicode="&#x153;" horiz-adv-x="899" 
d="M849 269q0 -22 -19 -22h-335v-10q0 -38 6 -69t21.5 -52.5t42.5 -33.5t69 -12q44 0 93.5 3t84.5 8h5q6 0 11 -3t5 -11v-34q0 -10 -4 -15.5t-16 -7.5q-43 -8 -85.5 -12.5t-93.5 -4.5q-54 0 -103 18t-81 64q-28 -39 -72 -60.5t-106 -21.5q-55 0 -96.5 17.5t-69.5 49.5
t-42 77t-14 100v76q0 55 14 100t42 77t69.5 49.5t96.5 17.5q62 0 106.5 -21.5t72.5 -60.5q27 39 71.5 60.5t106.5 21.5q55 0 96 -16.5t68.5 -47t41.5 -74t14 -96.5v-54zM407 313q0 77 -32 122t-103 45q-70 0 -102 -44.5t-32 -122.5v-76q0 -77 31.5 -122t102.5 -45
q70 0 102.5 44.5t32.5 122.5v76zM760 323q0 85 -32.5 121t-98.5 36t-100 -38t-34 -119v-9h265v9z" />
    <glyph glyph-name="endash" unicode="&#x2013;" horiz-adv-x="310" 
d="M325 263q0 -17 -19 -17h-302q-19 0 -19 17v39q0 8 5.5 13t13.5 5h302q8 0 13.5 -5t5.5 -13v-39z" />
    <glyph glyph-name="emdash" unicode="&#x2014;" horiz-adv-x="600" 
d="M615 263q0 -17 -19 -17h-592q-19 0 -19 17v39q0 8 5.5 13t13.5 5h592q8 0 13.5 -5t5.5 -13v-39z" />
    <glyph glyph-name="quotedblleft" unicode="&#x201c;" horiz-adv-x="336" 
d="M307 742q0 -6 -1 -9l-37 -189q-4 -19 -20 -19h-59q-11 0 -11 11q0 5 1 8l61 189q5 19 19 19h38q9 0 9 -10zM157 742q0 -6 -1 -9l-37 -189q-4 -19 -20 -19h-59q-11 0 -11 11q0 5 1 8l61 189q5 19 19 19h38q9 0 9 -10z" />
    <glyph glyph-name="quotedblright" unicode="&#x201d;" horiz-adv-x="336" 
d="M307 741q0 -5 -1 -8l-61 -189q-5 -19 -19 -19h-38q-9 0 -9 10q0 6 1 9l37 189q4 19 20 19h59q11 0 11 -11zM157 741q0 -5 -1 -8l-61 -189q-5 -19 -19 -19h-38q-9 0 -9 10q0 6 1 9l37 189q4 19 20 19h59q11 0 11 -11z" />
    <glyph glyph-name="quoteleft" unicode="&#x2018;" horiz-adv-x="186" 
d="M157 742q0 -6 -1 -9l-37 -189q-4 -19 -20 -19h-59q-11 0 -11 11q0 5 1 8l61 189q5 19 19 19h38q9 0 9 -10z" />
    <glyph glyph-name="quoteright" unicode="&#x2019;" horiz-adv-x="186" 
d="M157 741q0 -5 -1 -8l-61 -189q-5 -19 -19 -19h-38q-9 0 -9 10q0 6 1 9l37 189q4 19 20 19h59q11 0 11 -11z" />
    <glyph glyph-name="divide" unicode="&#xf7;" 
d="M345 527q0 -8 -5.5 -14t-13.5 -6h-48q-8 0 -14 6t-6 14v88q0 8 6 13.5t14 5.5h48q8 0 13.5 -5.5t5.5 -13.5v-88zM515 371q0 -8 -6 -12t-14 -4h-385q-8 0 -14 4t-6 12v40q0 8 6 12t14 4h385q8 0 14 -4t6 -12v-40zM345 162q0 -8 -5.5 -13.5t-13.5 -5.5h-48q-8 0 -14 5.5
t-6 13.5v89q0 8 6 13.5t14 5.5h48q8 0 13.5 -5.5t5.5 -13.5v-89z" />
    <glyph glyph-name="lozenge" unicode="&#x25ca;" horiz-adv-x="517" 
d="M477 360q0 -23 -22 -50l-154 -190q-23 -29 -42 -29q-20 0 -43 29l-154 190q-10 13 -16 25t-6 25q0 23 22 51l156 195q8 9 17 15.5t24 6.5q14 0 23.5 -6.5t16.5 -15.5l156 -195q22 -28 22 -51zM395 359q0 6 -3 11.5t-8 13.5l-106 135q-10 13 -19 13q-8 0 -20 -13
l-106 -135q-10 -14 -10 -25q0 -12 12 -27l103 -129l12 -12t9 -4t9 4l12 12l103 129q12 17 12 27z" />
    <glyph glyph-name="ydieresis" unicode="&#xff;" horiz-adv-x="534" 
d="M495 533q0 -5 -1 -7l-165 -576q-12 -41 -25.5 -69t-34.5 -45.5t-50.5 -25.5t-72.5 -8q-21 0 -44.5 2.5t-39.5 6.5q-9 2 -15 5t-6 11v37q0 16 19 16h3q17 -2 44.5 -4t44.5 -2q21 0 37 3.5t27.5 13t20 26t14.5 42.5l10 41h-14q-11 0 -21.5 2t-20 9t-17.5 21t-15 37
l-133 457q-1 2 -1 7q0 17 18 17h55q6 0 10.5 -5t6.5 -11l118 -434q4 -15 9 -18.5t10 -3.5h16l122 457q2 6 7 10.5t12 4.5h56q16 0 16 -17zM229 660q0 -8 -6 -13.5t-14 -5.5h-39q-8 0 -14 5.5t-6 13.5v81q0 8 6 14t14 6h39q8 0 14 -6t6 -14v-81zM404 660q0 -8 -6 -13.5
t-14 -5.5h-39q-8 0 -14 5.5t-6 13.5v81q0 8 6 14t14 6h39q8 0 14 -6t6 -14v-81z" />
    <glyph glyph-name="Ydieresis" unicode="&#x178;" horiz-adv-x="583" 
d="M549 729q0 -5 -3 -11l-155 -348q-14 -30 -27 -45t-27 -21v-284q0 -8 -5 -14t-13 -6h-55q-8 0 -13 6t-5 14v284q-14 5 -27 20.5t-27 45.5l-154 348q-3 6 -3 11q0 14 17 14h61q5 0 10.5 -4.5t7.5 -9.5l138 -324q8 -17 13 -21.5t10 -4.5t10 4.5t13 21.5l139 324q2 5 6.5 9.5
t10.5 4.5h61q17 0 17 -14zM418 821q0 -8 -6 -13.5t-14 -5.5h-39q-8 0 -14 5.5t-6 13.5v81q0 8 6 14t14 6h39q8 0 14 -6t6 -14v-81zM243 821q0 -8 -6 -13.5t-14 -5.5h-39q-8 0 -14 5.5t-6 13.5v81q0 8 6 14t14 6h39q8 0 14 -6t6 -14v-81z" />
    <glyph glyph-name="fraction" unicode="&#x2044;" horiz-adv-x="504" 
d="M493 743q11 0 11 -5.5t-5 -13.5l-418 -708q-6 -11 -10 -15.5t-12 -4.5h-47q-8 0 -10.5 5.5t2.5 14.5l421 713q6 10 9 12t11 2h48z" />
    <glyph glyph-name="Euro" unicode="&#x20ac;" 
d="M554 26q0 -9 -6 -13.5t-14 -6.5q-16 -3 -29.5 -5.5t-29.5 -4t-37.5 -2.5t-53.5 -1q-44 0 -91 13t-87 44t-68 83.5t-33 131.5h-33q-8 0 -14 6t-6 14v28q0 8 6 14t14 6h32v81h-32q-8 0 -14 6t-6 14v28q0 8 6 14t14 6h33q6 79 34 130.5t68 82t86.5 43t90.5 12.5
q48 0 83.5 -5.5t68.5 -10.5q16 -2 16 -13v-51q0 -5 -2 -8t-10 -3h-3q-27 2 -67.5 5.5t-84.5 3.5q-34 0 -65.5 -9.5t-57 -31t-43 -57.5t-22.5 -88h290q17 0 17 -16q0 -1 -0.5 -2t-0.5 -2l-7 -28q-2 -8 -7 -14t-13 -6h-281v-81h257q15 0 15 -15q0 -1 -0.5 -2t-0.5 -3l-7 -28
q-2 -8 -7 -14t-13 -6h-243q4 -53 21.5 -89.5t43.5 -59t58 -32t66 -9.5q44 0 83 3t66 5h4q16 0 16 -16v-41z" />
    <glyph glyph-name="guilsinglleft" unicode="&#x2039;" horiz-adv-x="354" 
d="M300 79q0 -9 -11 -9h-58q-6 0 -10.5 2t-10.5 8l-169 169q-5 5 -8 13.5t-3 14.5t3 14.5t8 13.5l169 169q6 6 10.5 8t10.5 2h58q11 0 11 -9q0 -7 -6 -13l-178 -185l178 -185q6 -6 6 -13z" />
    <glyph glyph-name="guilsinglright" unicode="&#x203a;" horiz-adv-x="354" 
d="M324 277q0 -6 -3 -14.5t-8 -13.5l-169 -169q-10 -10 -21 -10h-58q-11 0 -11 9q0 7 6 13l178 185l-178 185q-6 6 -6 13q0 9 11 9h58q6 0 10.5 -2t10.5 -8l169 -169q5 -5 8 -13.5t3 -14.5z" />
    <glyph glyph-name="daggerdbl" unicode="&#x2021;" horiz-adv-x="404" 
d="M367 285q0 -16 -19 -16h-109v-249q0 -8 -4 -14t-12 -6h-57q-8 0 -12 6t-4 14v249h-94q-19 0 -19 16v45q0 15 19 15h94v134h-94q-19 0 -19 16v45q0 15 19 15h94v178q0 8 4.5 13.5t12.5 5.5h56q8 0 12 -5.5t4 -13.5v-178h109q19 0 19 -15v-45q0 -16 -19 -16h-109v-134h109
q19 0 19 -15v-45z" />
    <glyph glyph-name="periodcentered" unicode="&#xb7;" horiz-adv-x="214" 
d="M150 345q0 -8 -5.5 -14t-13.5 -6h-48q-8 0 -13.5 6t-5.5 14v93q0 8 5.5 13.5t13.5 5.5h48q8 0 13.5 -5.5t5.5 -13.5v-93z" />
    <glyph glyph-name="uni2219" unicode="&#x2219;" horiz-adv-x="214" 
d="M150 345q0 -8 -5.5 -14t-13.5 -6h-48q-8 0 -13.5 6t-5.5 14v93q0 8 5.5 13.5t13.5 5.5h48q8 0 13.5 -5.5t5.5 -13.5v-93z" />
    <glyph glyph-name="quotesinglbase" unicode="&#x201a;" horiz-adv-x="186" 
d="M169 118q0 -2 -2 -8l-75 -189q-4 -10 -7.5 -14.5t-11.5 -4.5h-41q-12 0 -12 12q0 5 1 7l57 189q6 19 20 19h58q13 0 13 -11z" />
    </font>
</defs>
</svg>
